<?xml version="1.0" standalone="no"?>
<!DOCTYPE svg PUBLIC "-//W3C//DTD SVG 1.1//EN" "http://www.w3.org/Graphics/SVG/1.1/DTD/svg11.dtd" >
<svg xmlns="http://www.w3.org/2000/svg" xmlns:xlink="http://www.w3.org/1999/xlink" version="1.1">
<metadata>
Created by FontForge 20170910 at Mon Mar 25 18:05:50 2019
 By Jimmy Wärting
Copyright 2018-2019 Mikhail Sharanda
</metadata>
<defs>
<font id="Manrope3-Thin" horiz-adv-x="573" >
  <font-face 
    font-family="Manrope3 Thin"
    font-weight="100"
    font-stretch="semi-condensed"
    units-per-em="960"
    panose-1="0 0 2 6 0 0 0 0 0 0"
    ascent="768"
    descent="-192"
    x-height="540"
    cap-height="720"
    bbox="-22 -255 1076 929"
    underline-thickness="50"
    underline-position="-100"
    unicode-range="U+0020-FB02"
  />
<missing-glyph horiz-adv-x="740" 
d="M640 720v-13h-540v13h540zM640 665v-16h-540v16h540zM640 610v-18h-540v18h540zM640 554v-21h-540v21h540zM640 498v-22h-540v22h540zM640 443v-24h-540v24h540zM640 388v-28h-540v28h540zM640 333v-30h-540v30h540zM640 278v-33h-540v33h540zM640 222v-35h-540v35h540z
M640 167v-37h-540v37h540zM640 112v-40h-540v40h540zM640 0h-540v57h540v-57z" />
    <glyph glyph-name="f_f" unicode="ff" horiz-adv-x="628" 
d="M553 697c-63 0 -94 -27 -94 -100v-57h159v-42h-159v-498h-42v498h-247v-498h-42v498h-98v42h98v61c-1 42 7 73 32 100c24 25 56 34 99 34h70v-38h-65c-63 0 -94 -27 -94 -100v-57h247v61c-1 42 7 73 32 100c24 25 56 34 99 34h70v-38h-65z" />
    <glyph glyph-name="f_f_l" unicode="ffl" horiz-adv-x="870" 
d="M748 735h42v-735h-42v498h-289v-498h-42v498h-247v-498h-42v498h-98v42h98v61c-1 42 7 73 32 100c24 25 56 34 99 34h70v-38h-65c-63 0 -94 -27 -94 -100v-57h247v61c-1 42 7 73 32 100c24 25 56 34 99 34h70v-38h-65c-63 0 -94 -27 -94 -100v-57h289v195z" />
    <glyph glyph-name="fl" unicode="fl" horiz-adv-x="581" 
d="M459 735h42v-735h-42v498h-289v-498h-42v498h-98v42h98v61c-1 42 7 73 32 100c24 25 56 34 99 34h70v-38h-65c-63 0 -94 -27 -94 -100v-57h289v195z" />
    <glyph glyph-name="t_t" unicode="tt" horiz-adv-x="698" 
d="M498 498v-319c0 -47 -3 -72 11 -97c11 -27 38 -43 69 -46c30 -3 63 -2 90 4v-40c-32 -7 -63 -9 -95 -5c-47 6 -83 27 -102 68c-16 35 -15 69 -15 116v319h-277v-319c0 -47 -3 -72 11 -97c11 -27 38 -43 69 -46c30 -3 63 -2 90 4v-40c-32 -7 -63 -9 -95 -5
c-47 6 -83 27 -102 68c-16 35 -15 69 -15 116v319h-127v42h127v150h42v-150h277v150h42v-150h170v-42h-170z" />
    <glyph glyph-name="parenleft_greater_parenright.liga" unicode="&#x28;&#x3e;&#x29;" horiz-adv-x="1070" 
d="M535 -135c273 0 495 222 495 495s-222 495 -495 495s-495 -222 -495 -495s222 -495 495 -495zM537 -91c-252 0 -453 201 -453 453c0 248 201 449 453 449c248 0 449 -201 449 -449c0 -252 -201 -453 -449 -453zM474 510l180 -150l-180 -150v300z" />
    <glyph glyph-name="parenleft_c_parenright.liga" unicode="&#x28;c&#x29;" horiz-adv-x="768" 
d="M384 -75c190 0 344 154 344 344s-154 344 -344 344s-344 -154 -344 -344s154 -344 344 -344zM384 -31c-167 0 -301 134 -301 301c0 165 134 299 301 299c165 0 299 -134 299 -299c0 -167 -134 -301 -299 -301zM550 375l-41 -14c-10 22 -28 44 -49 58s-47 20 -73 20
c-43 0 -81 -18 -106 -50s-33 -76 -33 -119s10 -86 33 -119s63 -50 106 -50c26 0 52 7 74 20c21 13 36 33 47 57l42 -15c-14 -30 -35 -58 -62 -75c-30 -19 -63 -28 -101 -28c-58 0 -109 21 -142 64s-44 96 -43 146c1 51 9 104 43 146c35 44 84 64 142 64c37 0 68 -7 98 -25
c29 -18 54 -46 65 -80z" />
    <glyph glyph-name="space_less_three_space.liga" unicode="&#x20;&#x3c;&#x33;&#x20;" horiz-adv-x="1213" 
d="M738 555c44 0 87 -19 122 -57c35 -37 52 -83 53 -130c1 -48 -17 -97 -53 -135l-223 -235c-8 -9 -19 -13 -30 -13c-12 0 -24 4 -32 13l-223 235c-35 38 -51 85 -52 133c-1 47 17 95 52 132c36 38 78 57 122 57s88 -18 133 -55c41 37 87 55 131 55zM738 513
c-42 0 -88 -23 -131 -71c-48 48 -91 71 -133 71c-33 0 -64 -14 -91 -44c-26 -28 -39 -64 -40 -101c-1 -38 12 -76 40 -106l224 -235l223 235c28 30 40 68 40 106c0 37 -14 73 -40 101c-28 30 -59 44 -92 44z" />
    <glyph glyph-name="arrowright" unicode="&#x2d;&#x3e;" horiz-adv-x="994" 
d="M623 546l231 -231l-231 -231l-28 27l183 183h-638v42h638l-183 183z" />
    <glyph glyph-name="arrowleft" unicode="&#x3c;&#x2d;" horiz-adv-x="994" 
d="M854 336v-42h-638l183 -183l-28 -27l-231 231l231 231l28 -27l-183 -183h638z" />
    <glyph glyph-name=".notdef" horiz-adv-x="740" 
d="M640 720v-13h-540v13h540zM640 665v-16h-540v16h540zM640 610v-18h-540v18h540zM640 554v-21h-540v21h540zM640 498v-22h-540v22h540zM640 443v-24h-540v24h540zM640 388v-28h-540v28h540zM640 333v-30h-540v30h540zM640 278v-33h-540v33h540zM640 222v-35h-540v35h540z
M640 167v-37h-540v37h540zM640 112v-40h-540v40h540zM640 0h-540v57h540v-57z" />
    <glyph glyph-name="A" unicode="A" horiz-adv-x="609" 
d="M544 0l-68 187h-343l-68 -187h-45l262 720h45l262 -720h-45zM147 227h314l-157 432z" />
    <glyph glyph-name="Aacute" unicode="&#xc1;" horiz-adv-x="609" 
d="M397 879l-200 -93l-17 35l200 93zM544 0l-68 187h-343l-68 -187h-45l262 720h45l262 -720h-45zM147 227h314l-157 432z" />
    <glyph glyph-name="Abreve" unicode="&#x102;" horiz-adv-x="609" 
d="M305 780c-63 0 -114 51 -114 114h39c0 -41 34 -75 75 -75c42 0 75 34 75 75h39c0 -63 -51 -114 -114 -114zM544 0l-68 187h-343l-68 -187h-45l262 720h45l262 -720h-45zM147 227h314l-157 432z" />
    <glyph glyph-name="Acircumflex" unicode="&#xc2;" horiz-adv-x="609" 
d="M305 860l-100 -74l-23 32l123 91l123 -91l-23 -32zM544 0l-68 187h-343l-68 -187h-45l262 720h45l262 -720h-45zM147 227h314l-157 432z" />
    <glyph glyph-name="Adieresis" unicode="&#xc4;" horiz-adv-x="609" 
d="M245 900v-60h-60v60h60zM425 900v-60h-60v60h60zM544 0l-68 187h-343l-68 -187h-45l262 720h45l262 -720h-45zM147 227h314l-157 432z" />
    <glyph glyph-name="Agrave" unicode="&#xc0;" horiz-adv-x="609" 
d="M429 821l-17 -35l-200 93l17 35zM544 0l-68 187h-343l-68 -187h-45l262 720h45l262 -720h-45zM148 227h314l-157 432z" />
    <glyph glyph-name="Amacron" unicode="&#x100;" horiz-adv-x="609" 
d="M425 882v-42h-240v42h240zM544 0l-68 187h-343l-68 -187h-45l262 720h45l262 -720h-45zM147 227h314l-157 432z" />
    <glyph glyph-name="Aogonek" unicode="&#x104;" horiz-adv-x="609" 
d="M569 -172l26 -29c-12 -12 -27 -23 -45 -31c-36 -15 -75 -7 -96 17c-24 24 -29 56 -19 92c16 53 56 105 101 144l-60 166h-343l-68 -187h-45l262 720h45l262 -720h-16c-22 -17 -42 -38 -59 -60c-17 -23 -32 -48 -39 -74c-6 -19 -5 -38 8 -51c27 -27 62 -9 86 13zM147 227
h314l-157 432z" />
    <glyph glyph-name="Aring" unicode="&#xc5;" horiz-adv-x="609" 
d="M544 0l-68 187h-343l-68 -187h-45l250 687c-37 14 -64 50 -64 93c0 54 45 99 99 99c55 0 99 -45 99 -99c0 -43 -27 -79 -65 -93l250 -687h-45zM245 780c0 -33 27 -60 60 -60c34 0 60 27 60 60s-26 60 -60 60c-33 0 -60 -27 -60 -60zM147 227h314l-157 432z" />
    <glyph glyph-name="Atilde" unicode="&#xc3;" horiz-adv-x="609" 
d="M206 840h-36c-4 15 -4 33 5 50c11 19 32 28 49 29c31 3 57 -7 81 -17c36 -15 55 -24 76 -22c25 2 28 26 22 40h36c4 -15 4 -33 -5 -50c-11 -19 -32 -28 -49 -29c-31 -3 -57 7 -81 17c-36 15 -55 24 -76 22c-25 -2 -28 -26 -22 -40zM544 0l-68 187h-343l-68 -187h-45
l262 720h45l262 -720h-45zM147 227h314l-157 432z" />
    <glyph glyph-name="AE" unicode="&#xc6;" horiz-adv-x="905" 
d="M855 678h-398v-297h338v-42h-338v-297h398v-42h-440v157h-293l-57 -157h-45l262 720h573v-42zM136 197h279v481h-104z" />
    <glyph glyph-name="B" unicode="B" horiz-adv-x="601" 
d="M531 315c28 -35 43 -81 40 -125s-17 -91 -45 -122c-49 -53 -93 -68 -183 -68h-273v720h273c59 0 106 -21 145 -58c31 -30 48 -80 48 -122c0 -38 -13 -73 -35 -104c-15 -22 -34 -39 -57 -52c35 -15 65 -38 87 -69zM343 679h-231v-279h231c44 0 94 22 121 62
c18 26 27 57 27 88c0 34 -13 63 -36 86c-28 28 -68 43 -112 43zM487 94c27 26 39 59 39 96c0 35 -10 70 -30 98c-28 44 -88 71 -134 71h-250v-317h230c61 0 100 9 145 52z" />
    <glyph glyph-name="C" unicode="C" horiz-adv-x="712" 
d="M625 228l42 -12c-10 -42 -29 -82 -56 -118c-58 -77 -148 -113 -248 -113s-188 34 -247 113c-56 75 -78 178 -76 262c2 90 18 185 76 261c58 77 148 114 247 114s191 -39 248 -114c31 -40 50 -87 61 -135l-44 -7c-9 42 -27 82 -52 115c-52 69 -128 97 -213 98
c-82 1 -161 -31 -212 -97s-66 -151 -66 -235s10 -162 66 -236c50 -67 126 -96 212 -97c83 -1 164 33 213 98c22 31 39 66 49 103z" />
    <glyph glyph-name="Cacute" unicode="&#x106;" horiz-adv-x="712" 
d="M264 786l200 93l-17 35l-200 -93zM625 228l42 -12c-10 -42 -29 -82 -56 -118c-58 -77 -148 -113 -248 -113s-188 34 -247 113c-56 75 -78 178 -76 262c2 90 18 185 76 261c58 77 148 114 247 114s191 -39 248 -114c31 -40 50 -87 61 -135l-44 -7c-9 42 -27 82 -52 115
c-52 69 -128 97 -213 98c-82 1 -161 -31 -212 -97s-66 -151 -66 -235s10 -162 66 -236c50 -67 126 -96 212 -97c83 -1 164 33 213 98c22 31 39 66 49 103z" />
    <glyph glyph-name="Ccaron" unicode="&#x10c;" horiz-adv-x="712" 
d="M266 909l-23 -32l123 -91l123 91l-23 32l-100 -74zM625 228l42 -12c-10 -42 -29 -82 -56 -118c-58 -77 -148 -113 -248 -113s-188 34 -247 113c-56 75 -78 178 -76 262c2 90 18 185 76 261c58 77 148 114 247 114s191 -39 248 -114c31 -40 50 -87 61 -135l-44 -7
c-9 42 -27 82 -52 115c-52 69 -128 97 -213 98c-82 1 -161 -31 -212 -97s-66 -151 -66 -235s10 -162 66 -236c50 -67 126 -96 212 -97c83 -1 164 33 213 98c22 31 39 66 49 103z" />
    <glyph glyph-name="Ccedilla" unicode="&#xc7;" horiz-adv-x="712" 
d="M576 125c22 31 39 66 49 103l42 -12c-10 -42 -29 -82 -56 -118c-51 -68 -128 -104 -214 -112l-21 -57c19 -8 37 -23 48 -43c15 -26 13 -63 -5 -88c-16 -26 -50 -40 -79 -37c-19 1 -36 7 -52 14l14 37c14 -5 28 -9 40 -10c19 -1 34 6 42 20c9 14 11 30 3 45
c-10 21 -30 26 -62 37l30 81c-97 2 -182 36 -239 113c-56 75 -78 178 -76 262c2 90 18 185 76 261c58 77 148 114 247 114s191 -39 248 -114c31 -40 50 -87 61 -135l-44 -7c-9 42 -27 82 -52 115c-52 69 -128 97 -213 98c-82 1 -161 -31 -212 -97s-66 -151 -66 -235
s10 -162 66 -236c50 -67 126 -96 212 -97c83 -1 164 33 213 98z" />
    <glyph glyph-name="Cdotaccent" unicode="&#x10a;" horiz-adv-x="712" 
d="M333 925h60v-60h-60v60zM625 228l42 -12c-10 -42 -29 -82 -56 -118c-58 -77 -148 -113 -248 -113s-188 34 -247 113c-56 75 -78 178 -76 262c2 90 18 185 76 261c58 77 148 114 247 114s191 -39 248 -114c31 -40 50 -87 61 -135l-44 -7c-9 42 -27 82 -52 115
c-52 69 -128 97 -213 98c-82 1 -161 -31 -212 -97s-66 -151 -66 -235s10 -162 66 -236c50 -67 126 -96 212 -97c83 -1 164 33 213 98c22 31 39 66 49 103z" />
    <glyph glyph-name="D" unicode="D" horiz-adv-x="652" 
d="M612 360c0 185 -76 332 -236 355c-25 4 -61 5 -95 5h-211v-720h211c34 0 70 1 95 5c160 23 236 170 236 355zM567 360c0 -158 -49 -285 -197 -312c-22 -4 -57 -6 -89 -6h-166v636h166c32 0 67 -2 89 -6c148 -27 197 -154 197 -312z" />
    <glyph glyph-name="Eth" unicode="&#xd0;" horiz-adv-x="641" 
d="M365 715c160 -23 236 -170 236 -355s-76 -332 -236 -355c-25 -4 -61 -5 -95 -5h-211v339h-49v42h49v339h211c34 0 70 -1 95 -5zM359 48c148 27 197 154 197 312s-49 285 -197 312c-22 4 -57 6 -89 6h-166v-297h206v-42h-206v-297h166c32 0 67 2 89 6z" />
    <glyph glyph-name="Dcaron" unicode="&#x10e;" horiz-adv-x="652" 
d="M161 909l-23 -32l123 -91l123 91l-23 32l-100 -74zM612 360c0 185 -76 332 -236 355c-25 4 -61 5 -95 5h-211v-720h211c34 0 70 1 95 5c160 23 236 170 236 355zM567 360c0 -158 -49 -285 -197 -312c-22 -4 -57 -6 -89 -6h-166v636h166c32 0 67 -2 89 -6
c148 -27 197 -154 197 -312z" />
    <glyph glyph-name="Dcroat" unicode="&#x110;" horiz-adv-x="641" 
d="M365 715c160 -23 236 -170 236 -355s-76 -332 -236 -355c-25 -4 -61 -5 -95 -5h-211v339h-49v42h49v339h211c34 0 70 -1 95 -5zM359 48c148 27 197 154 197 312s-49 285 -197 312c-22 4 -57 6 -89 6h-166v-297h206v-42h-206v-297h166c32 0 67 2 89 6z" />
    <glyph glyph-name="E" unicode="E" horiz-adv-x="560" 
d="M510 678h-398v-297h338v-42h-338v-297h398v-42h-440v720h440v-42z" />
    <glyph glyph-name="Eacute" unicode="&#xc9;" horiz-adv-x="560" 
d="M395 879l-200 -93l-17 35l200 93zM510 678h-398v-297h338v-42h-338v-297h398v-42h-440v720h440v-42z" />
    <glyph glyph-name="Ecaron" unicode="&#x11a;" horiz-adv-x="560" 
d="M413 877l-123 -91l-123 91l23 32l100 -74l100 74zM510 678h-398v-297h338v-42h-338v-297h398v-42h-440v720h440v-42z" />
    <glyph glyph-name="Ecircumflex" unicode="&#xca;" horiz-adv-x="560" 
d="M279 860l-100 -74l-23 32l123 91l123 -91l-23 -32zM510 678h-398v-297h338v-42h-338v-297h398v-42h-440v720h440v-42z" />
    <glyph glyph-name="Edieresis" unicode="&#xcb;" horiz-adv-x="560" 
d="M215 900v-60h-60v60h60zM395 900v-60h-60v60h60zM510 678h-398v-297h338v-42h-338v-297h398v-42h-440v720h440v-42z" />
    <glyph glyph-name="Edotaccent" unicode="&#x116;" horiz-adv-x="560" 
d="M325 900v-60h-60v60h60zM510 678h-398v-297h338v-42h-338v-297h398v-42h-440v720h440v-42z" />
    <glyph glyph-name="Egrave" unicode="&#xc8;" horiz-adv-x="560" 
d="M377 821l-17 -35l-200 93l17 35zM510 678h-398v-297h338v-42h-338v-297h398v-42h-440v720h440v-42z" />
    <glyph glyph-name="Emacron" unicode="&#x112;" horiz-adv-x="560" 
d="M410 882v-42h-240v42h240zM510 678h-398v-297h338v-42h-338v-297h398v-42h-440v720h440v-42z" />
    <glyph glyph-name="Eogonek" unicode="&#x118;" horiz-adv-x="560" 
d="M506 -172l26 -29c-12 -12 -27 -23 -45 -31c-36 -15 -75 -7 -96 17c-24 24 -29 56 -19 92c13 44 43 87 79 123h-381v720h440v-42h-398v-297h338v-42h-338v-297h398v-42c-22 -17 -42 -38 -59 -60c-17 -23 -32 -48 -39 -74c-6 -19 -5 -38 8 -51c27 -27 62 -9 86 13z" />
    <glyph glyph-name="F" unicode="F" horiz-adv-x="490" 
d="M470 678h-358v-297h298v-42h-298v-339h-42v720h400v-42z" />
    <glyph glyph-name="G" unicode="G" horiz-adv-x="726" 
d="M445 360h241v-14c0 -78 -19 -174 -75 -247c-63 -83 -153 -114 -249 -114c-99 0 -192 36 -250 119c-56 81 -72 172 -72 256c0 89 18 184 75 260c56 74 145 115 247 115c99 0 190 -37 249 -114c13 -17 26 -39 36 -60l-41 -17c-9 17 -21 38 -32 52c-49 64 -129 97 -212 97
c-82 0 -164 -34 -213 -100c-48 -64 -64 -151 -64 -233s12 -165 64 -234c51 -68 131 -99 213 -99c83 0 163 29 214 99c44 60 59 123 63 192h-194v42z" />
    <glyph glyph-name="Gbreve" unicode="&#x11e;" horiz-adv-x="726" 
d="M363 780c-63 0 -114 51 -114 114h39c0 -41 34 -75 75 -75c42 0 75 34 75 75h39c0 -63 -51 -114 -114 -114zM445 360h241v-14c0 -78 -19 -174 -75 -247c-63 -83 -153 -114 -249 -114c-99 0 -192 36 -250 119c-56 81 -72 172 -72 256c0 89 18 184 75 260
c56 74 145 115 247 115c99 0 190 -37 249 -114c13 -17 26 -39 36 -60l-41 -17c-9 17 -21 38 -32 52c-49 64 -129 97 -212 97c-82 0 -164 -34 -213 -100c-48 -64 -64 -151 -64 -233s12 -165 64 -234c51 -68 131 -99 213 -99c83 0 163 29 214 99c44 60 59 123 63 192h-194v42z
" />
    <glyph glyph-name="uni0122" unicode="&#x122;" horiz-adv-x="726" 
d="M445 360h241v-14c0 -78 -19 -174 -75 -247c-63 -83 -153 -114 -249 -114c-99 0 -192 36 -250 119c-56 81 -72 172 -72 256c0 89 18 184 75 260c56 74 145 115 247 115c99 0 190 -37 249 -114c13 -17 26 -39 36 -60l-41 -17c-9 17 -21 38 -32 52c-49 64 -129 97 -212 97
c-82 0 -164 -34 -213 -100c-48 -64 -64 -151 -64 -233s12 -165 64 -234c51 -68 131 -99 213 -99c83 0 163 29 214 99c44 60 59 123 63 192h-194v42zM324 -150v60h60v-60c0 -51 -36 -69 -60 -69v30c10 0 34 10 31 39h-31z" />
    <glyph glyph-name="Gdotaccent" unicode="&#x120;" horiz-adv-x="726" 
d="M393 900v-60h-60v60h60zM445 360h241v-14c0 -78 -19 -174 -75 -247c-63 -83 -153 -114 -249 -114c-99 0 -192 36 -250 119c-56 81 -72 172 -72 256c0 89 18 184 75 260c56 74 145 115 247 115c99 0 190 -37 249 -114c13 -17 26 -39 36 -60l-41 -17c-9 17 -21 38 -32 52
c-49 64 -129 97 -212 97c-82 0 -164 -34 -213 -100c-48 -64 -64 -151 -64 -233s12 -165 64 -234c51 -68 131 -99 213 -99c83 0 163 29 214 99c44 60 59 123 63 192h-194v42z" />
    <glyph glyph-name="H" unicode="H" horiz-adv-x="660" 
d="M548 720h42v-720h-42v339h-436v-339h-42v720h42v-339h436v339z" />
    <glyph glyph-name="Hbar" unicode="&#x126;" horiz-adv-x="680" 
d="M670 540v-42h-80v-498h-42v339h-436v-339h-42v498h-60v42h60v180h42v-180h436v180h42v-180h80zM548 381v117h-436v-117h436z" />
    <glyph glyph-name="I" unicode="I" horiz-adv-x="202" 
d="M80 720h42v-720h-42v720z" />
    <glyph glyph-name="Iacute" unicode="&#xcd;" horiz-adv-x="202" 
d="M9 786l200 93l-17 35l-200 -93zM80 720h42v-720h-42v720z" />
    <glyph glyph-name="Icircumflex" unicode="&#xce;" horiz-adv-x="202" 
d="M1 786l100 74l100 -74l23 32l-123 91l-123 -91zM80 720h42v-720h-42v720z" />
    <glyph glyph-name="Idieresis" unicode="&#xcf;" horiz-adv-x="202" 
d="M-19 900h60v-60h-60v60zM161 900h60v-60h-60v60zM80 720h42v-720h-42v720z" />
    <glyph glyph-name="Idotaccent" unicode="&#x130;" horiz-adv-x="202" 
d="M71 900h60v-60h-60v60zM80 720h42v-720h-42v720z" />
    <glyph glyph-name="Igrave" unicode="&#xcc;" horiz-adv-x="202" 
d="M192 786l17 35l-200 93l-17 -35zM80 720h42v-720h-42v720z" />
    <glyph glyph-name="Imacron" unicode="&#x12a;" horiz-adv-x="202" 
d="M-19 882h240v-42h-240v42zM80 720h42v-720h-42v720z" />
    <glyph glyph-name="Iogonek" unicode="&#x12e;" horiz-adv-x="202" 
d="M118 -172l26 -29c-12 -12 -27 -23 -45 -31c-36 -15 -75 -7 -96 17c-24 24 -29 56 -19 92c15 51 53 100 96 139v704h42v-720c-22 -17 -42 -38 -59 -60c-17 -23 -32 -48 -39 -74c-6 -19 -5 -38 8 -51c27 -27 62 -9 86 13z" />
    <glyph glyph-name="J" unicode="J" horiz-adv-x="439" 
d="M358 720h-42v-508c0 -54 0 -85 -18 -119c-24 -45 -71 -65 -121 -65c-67 0 -121 50 -134 107l-43 -10c20 -84 92 -139 179 -139c66 0 124 29 156 85c25 44 23 86 23 141v508z" />
    <glyph glyph-name="K" unicode="K" horiz-adv-x="558" 
d="M70 720h42v-720h-42v720zM173 376l385 -376h-58l-388 376l356 344h58z" />
    <glyph glyph-name="uni0136" unicode="&#x136;" horiz-adv-x="558" 
d="M70 720h42v-720h-42v720zM173 376l385 -376h-58l-388 376l356 344h58zM292 -150v60h60v-60c0 -51 -36 -69 -60 -69v30c10 0 34 10 31 39h-31z" />
    <glyph glyph-name="L" unicode="L" horiz-adv-x="495" 
d="M122 720h-42v-720h400v42h-358v678z" />
    <glyph glyph-name="Lacute" unicode="&#x139;" horiz-adv-x="495" 
d="M97 786l200 93l-17 35l-200 -93zM122 720h-42v-720h400v42h-358v678z" />
    <glyph glyph-name="Lcaron" unicode="&#x13d;" horiz-adv-x="495" 
d="M377 610c0 -41 -22 -66 -60 -59l3 26c35 -2 30 31 30 63h-33v90h60v-120zM122 720h-42v-720h400v42h-358v678z" />
    <glyph glyph-name="uni013B" unicode="&#x13b;" horiz-adv-x="495" 
d="M122 720h-42v-720h400v42h-358v678zM310 -150c0 -51 -36 -69 -60 -69v30c10 0 34 10 31 39h-31v60h60v-60z" />
    <glyph glyph-name="Lslash" unicode="&#x141;" horiz-adv-x="495" 
d="M122 42h358v-42h-400v243l-31 -18v50l31 18v427h42v-403l190 109v-49l-190 -110v-225z" />
    <glyph glyph-name="M" unicode="M" horiz-adv-x="831" 
d="M761 720v-719h-42v618l-280 -619h-47l-280 619v-619h-42v720h40l306 -669l303 669h42z" />
    <glyph glyph-name="N" unicode="N" horiz-adv-x="662" 
d="M112 720l438 -645v645h42v-720h-42l-438 646v-646h-42v720h42z" />
    <glyph glyph-name="Nacute" unicode="&#x143;" horiz-adv-x="662" 
d="M260 786l200 93l-17 35l-200 -93zM112 720l438 -645v645h42v-720h-42l-438 646v-646h-42v720h42z" />
    <glyph glyph-name="Ncaron" unicode="&#x147;" horiz-adv-x="662" 
d="M245 909l-23 -32l123 -91l123 91l-23 32l-100 -74zM112 720l438 -645v645h42v-720h-42l-438 646v-646h-42v720h42z" />
    <glyph glyph-name="uni0145" unicode="&#x145;" horiz-adv-x="662" 
d="M112 720l438 -645v645h42v-720h-42l-438 646v-646h-42v720h42zM371 -150c0 -51 -36 -69 -60 -69v30c10 0 34 10 31 39h-31v60h60v-60z" />
    <glyph glyph-name="Eng" unicode="&#x14a;" horiz-adv-x="662" 
d="M550 720h42v-815c0 -57 -22 -77 -52 -83c-28 -3 -45 -1 -65 4v41c65 -10 75 7 75 78c0 30 -7 61 -21 86l-417 615v-646h-42v720h42l438 -645v645z" />
    <glyph glyph-name="Ntilde" unicode="&#xd1;" horiz-adv-x="662" 
d="M480 895c4 -15 4 -33 -5 -50c-11 -19 -32 -28 -49 -29c-31 -3 -57 7 -81 17c-36 15 -55 24 -76 22c-25 -2 -28 -26 -22 -40h-36c-4 15 -4 33 5 50c11 19 32 28 49 29c31 3 57 -7 81 -17c36 -15 55 -24 76 -22c25 2 28 26 22 40h36zM112 720l438 -645v645h42v-720h-42
l-438 646v-646h-42v720h42z" />
    <glyph glyph-name="O" unicode="O" horiz-adv-x="726" 
d="M363 -15c-214 0 -321 156 -323 375s118 378 323 374c216 -4 321 -151 323 -374c2 -217 -111 -375 -323 -375zM363 27c188 2 276 136 278 333c2 195 -98 334 -278 332c-188 -2 -276 -134 -278 -332c-2 -196 96 -335 278 -333z" />
    <glyph glyph-name="Oacute" unicode="&#xd3;" horiz-adv-x="726" 
d="M282 786l200 93l-17 35l-200 -93zM363 -15c-214 0 -321 156 -323 375s118 378 323 374c216 -4 321 -151 323 -374c2 -217 -111 -375 -323 -375zM363 27c188 2 276 136 278 333c2 195 -98 334 -278 332c-188 -2 -276 -134 -278 -332c-2 -196 96 -335 278 -333z" />
    <glyph glyph-name="Ocircumflex" unicode="&#xd4;" horiz-adv-x="726" 
d="M263 786l100 74l100 -74l23 32l-123 91l-123 -91zM363 -15c-214 0 -321 156 -323 375s118 378 323 374c216 -4 321 -151 323 -374c2 -217 -111 -375 -323 -375zM363 27c188 2 276 136 278 333c2 195 -98 334 -278 332c-188 -2 -276 -134 -278 -332
c-2 -196 96 -335 278 -333z" />
    <glyph glyph-name="Odieresis" unicode="&#xd6;" horiz-adv-x="726" 
d="M243 900h60v-60h-60v60zM423 900h60v-60h-60v60zM363 -15c-214 0 -321 156 -323 375s118 378 323 374c216 -4 321 -151 323 -374c2 -217 -111 -375 -323 -375zM363 27c188 2 276 136 278 333c2 195 -98 334 -278 332c-188 -2 -276 -134 -278 -332
c-2 -196 96 -335 278 -333z" />
    <glyph glyph-name="Ograve" unicode="&#xd2;" horiz-adv-x="726" 
d="M475 786l17 35l-200 93l-17 -35zM363 -15c-214 0 -321 156 -323 375s118 378 323 374c216 -4 321 -151 323 -374c2 -217 -111 -375 -323 -375zM363 27c188 2 276 136 278 333c2 195 -98 334 -278 332c-188 -2 -276 -134 -278 -332c-2 -196 96 -335 278 -333z" />
    <glyph glyph-name="Ohungarumlaut" unicode="&#x150;" horiz-adv-x="726" 
d="M297 793l95 93l-27 28l-95 -93zM432 793l95 93l-27 28l-95 -93zM363 -15c-214 0 -321 156 -323 375s118 378 323 374c216 -4 321 -151 323 -374c2 -217 -111 -375 -323 -375zM363 27c188 2 276 136 278 333c2 195 -98 334 -278 332c-188 -2 -276 -134 -278 -332
c-2 -196 96 -335 278 -333z" />
    <glyph glyph-name="Omacron" unicode="&#x14c;" horiz-adv-x="726" 
d="M243 882h240v-42h-240v42zM363 -15c-214 0 -321 156 -323 375s118 378 323 374c216 -4 321 -151 323 -374c2 -217 -111 -375 -323 -375zM363 27c188 2 276 136 278 333c2 195 -98 334 -278 332c-188 -2 -276 -134 -278 -332c-2 -196 96 -335 278 -333z" />
    <glyph glyph-name="Oslash" unicode="&#xd8;" horiz-adv-x="726" 
d="M639 576c31 -58 46 -132 47 -216c2 -217 -111 -375 -323 -375c-98 0 -173 33 -227 89l-74 -74l-30 30l77 77c-45 65 -68 152 -69 253c-2 219 118 378 323 374c117 -2 201 -46 254 -121l107 107l30 -29zM85 360c-1 -88 18 -164 56 -221l443 442c-47 70 -122 112 -221 111
c-188 -2 -276 -134 -278 -332zM641 360c1 69 -11 131 -35 183l-439 -438c47 -50 113 -79 196 -78c188 2 276 136 278 333z" />
    <glyph glyph-name="Otilde" unicode="&#xd5;" horiz-adv-x="726" 
d="M498 920c4 -15 4 -33 -5 -50c-11 -19 -32 -28 -49 -29c-31 -3 -57 7 -81 17c-36 15 -55 24 -76 22c-25 -2 -28 -26 -22 -40h-36c-4 15 -4 33 5 50c11 19 32 28 49 29c31 3 57 -7 81 -17c36 -15 55 -24 76 -22c25 2 28 26 22 40h36zM363 -15c-214 0 -321 156 -323 375
s118 378 323 374c216 -4 321 -151 323 -374c2 -217 -111 -375 -323 -375zM363 27c188 2 276 136 278 333c2 195 -98 334 -278 332c-188 -2 -276 -134 -278 -332c-2 -196 96 -335 278 -333z" />
    <glyph glyph-name="OE" unicode="&#x152;" horiz-adv-x="1126" 
d="M678 678v-222c4 -24 6 -49 7 -75h331v-42h-330c-1 -28 -3 -54 -8 -79v-218h398v-42h-440v137c-52 -94 -144 -152 -273 -152c-214 0 -321 156 -323 375s118 378 323 374c132 -2 222 -58 273 -151v137h440v-42h-398zM363 27c164 2 252 104 273 261v150
c-22 153 -118 256 -273 254c-188 -2 -276 -134 -278 -332c-2 -196 96 -335 278 -333z" />
    <glyph glyph-name="P" unicode="P" horiz-adv-x="581" 
d="M381 716c104 -16 170 -104 170 -212s-66 -196 -170 -212c-18 -3 -32 -4 -46 -4h-223v-288h-42v720h265c14 0 28 -1 46 -4zM379 334c83 16 127 89 127 170s-44 154 -127 170c-16 3 -33 4 -44 4h-223v-348h223c11 0 28 1 44 4z" />
    <glyph glyph-name="Thorn" unicode="&#xde;" horiz-adv-x="571" 
d="M473 516c43 -40 68 -98 68 -156c0 -54 -22 -106 -57 -145c-39 -44 -100 -71 -159 -71h-213v-144h-42v720h42v-144h213c26 0 52 -5 77 -15c26 -10 51 -26 71 -45zM455 248c26 31 42 71 41 112c-1 47 -20 92 -53 125c-30 30 -75 49 -118 49h-213v-348h213
c49 0 98 24 130 62z" />
    <glyph glyph-name="Q" unicode="Q" horiz-adv-x="726" 
d="M686 360c1 -111 -28 -206 -85 -273l68 -68l-32 -33l-69 68c-52 -44 -120 -69 -205 -69c-214 0 -321 156 -323 375s118 378 323 374c216 -4 321 -151 323 -374zM363 27c73 1 131 21 175 58l-84 83l33 33l83 -83c47 59 70 142 71 242c2 195 -98 334 -278 332
c-188 -2 -276 -134 -278 -332c-2 -196 96 -335 278 -333z" />
    <glyph glyph-name="R" unicode="R" horiz-adv-x="591" 
d="M571 0h-50l-141 292c-18 -3 -31 -4 -45 -4h-223v-288h-42v720h265c14 0 28 -1 46 -4c104 -16 170 -104 170 -212c0 -93 -48 -170 -128 -201zM112 330h223c11 0 28 1 44 4c83 16 127 89 127 170s-44 154 -127 170c-16 3 -33 4 -44 4h-223v-348z" />
    <glyph glyph-name="Racute" unicode="&#x154;" horiz-adv-x="591" 
d="M394 879l-200 -93l-17 35l200 93zM571 0h-50l-141 292c-18 -3 -31 -4 -45 -4h-223v-288h-42v720h265c14 0 28 -1 46 -4c104 -16 170 -104 170 -212c0 -93 -48 -170 -128 -201zM112 330h223c11 0 28 1 44 4c83 16 127 89 127 170s-44 154 -127 170c-16 3 -33 4 -44 4h-223
v-348z" />
    <glyph glyph-name="Rcaron" unicode="&#x158;" horiz-adv-x="591" 
d="M399 877l-123 -91l-123 91l23 32l100 -74l100 74zM571 0h-50l-141 292c-18 -3 -31 -4 -45 -4h-223v-288h-42v720h265c14 0 28 -1 46 -4c104 -16 170 -104 170 -212c0 -93 -48 -170 -128 -201zM112 330h223c11 0 28 1 44 4c83 16 127 89 127 170s-44 154 -127 170
c-16 3 -33 4 -44 4h-223v-348z" />
    <glyph glyph-name="uni0156" unicode="&#x156;" horiz-adv-x="591" 
d="M571 0h-50l-141 292c-18 -3 -31 -4 -45 -4h-223v-288h-42v720h265c14 0 28 -1 46 -4c104 -16 170 -104 170 -212c0 -93 -48 -170 -128 -201zM112 330h223c11 0 28 1 44 4c83 16 127 89 127 170s-44 154 -127 170c-16 3 -33 4 -44 4h-223v-348zM265 -150v60h60v-60
c0 -51 -36 -69 -60 -69v30c10 0 34 10 31 39h-31z" />
    <glyph glyph-name="S" unicode="S" horiz-adv-x="589" 
d="M556 525l-42 -8c-11 73 -48 117 -98 145c-34 19 -84 31 -127 31c-41 0 -83 -9 -116 -30c-34 -22 -70 -59 -70 -118c0 -22 8 -56 32 -77c30 -26 66 -39 112 -53l131 -39c47 -14 99 -32 135 -67c34 -34 46 -71 46 -118c0 -67 -28 -124 -77 -158s-104 -48 -177 -48
s-157 21 -217 83c-31 33 -50 73 -58 111l42 8c9 -34 25 -68 59 -98c45 -40 101 -62 175 -62c54 0 111 12 149 40c39 28 63 67 63 124c0 30 -10 63 -33 86c-30 31 -73 43 -119 57l-131 39c-44 13 -90 24 -129 60c-33 30 -48 68 -48 109c0 69 37 126 93 159
c41 24 92 34 137 34c52 0 116 -13 157 -39c52 -33 98 -83 111 -171z" />
    <glyph glyph-name="Sacute" unicode="&#x15a;" horiz-adv-x="589" 
d="M207 786l200 93l-17 35l-200 -93zM556 525l-42 -8c-11 73 -48 117 -98 145c-34 19 -84 31 -127 31c-41 0 -83 -9 -116 -30c-34 -22 -70 -59 -70 -118c0 -22 8 -56 32 -77c30 -26 66 -39 112 -53l131 -39c47 -14 99 -32 135 -67c34 -34 46 -71 46 -118
c0 -67 -28 -124 -77 -158s-104 -48 -177 -48s-157 21 -217 83c-31 33 -50 73 -58 111l42 8c9 -34 25 -68 59 -98c45 -40 101 -62 175 -62c54 0 111 12 149 40c39 28 63 67 63 124c0 30 -10 63 -33 86c-30 31 -73 43 -119 57l-131 39c-44 13 -90 24 -129 60
c-33 30 -48 68 -48 109c0 69 37 126 93 159c41 24 92 34 137 34c52 0 116 -13 157 -39c52 -33 98 -83 111 -171z" />
    <glyph glyph-name="Scaron" unicode="&#x160;" horiz-adv-x="589" 
d="M208 909l-23 -32l123 -91l123 91l-23 32l-100 -74zM556 525l-42 -8c-11 73 -48 117 -98 145c-34 19 -84 31 -127 31c-41 0 -83 -9 -116 -30c-34 -22 -70 -59 -70 -118c0 -22 8 -56 32 -77c30 -26 66 -39 112 -53l131 -39c47 -14 99 -32 135 -67c34 -34 46 -71 46 -118
c0 -67 -28 -124 -77 -158s-104 -48 -177 -48s-157 21 -217 83c-31 33 -50 73 -58 111l42 8c9 -34 25 -68 59 -98c45 -40 101 -62 175 -62c54 0 111 12 149 40c39 28 63 67 63 124c0 30 -10 63 -33 86c-30 31 -73 43 -119 57l-131 39c-44 13 -90 24 -129 60
c-33 30 -48 68 -48 109c0 69 37 126 93 159c41 24 92 34 137 34c52 0 116 -13 157 -39c52 -33 98 -83 111 -171z" />
    <glyph glyph-name="Scedilla" unicode="&#x15e;" horiz-adv-x="589" 
d="M513 309c34 -34 46 -71 46 -118c0 -67 -28 -124 -77 -158c-42 -29 -89 -44 -148 -47l-21 -57c19 -8 37 -23 48 -43c15 -26 13 -63 -5 -88c-16 -26 -50 -40 -79 -37c-19 1 -36 7 -52 14l14 37c14 -5 28 -9 40 -10c19 -1 34 6 42 20c9 14 11 30 3 45c-10 21 -30 26 -62 37
l30 81c-70 3 -148 25 -204 83c-31 33 -50 73 -58 111l42 8c9 -34 25 -68 59 -98c45 -40 101 -62 175 -62c54 0 111 12 149 40c39 28 63 67 63 124c0 30 -10 63 -33 86c-30 31 -73 43 -119 57l-131 39c-44 13 -90 24 -129 60c-33 30 -48 68 -48 109c0 69 37 126 93 159
c41 24 92 34 137 34c52 0 116 -13 157 -39c52 -33 98 -83 111 -171l-42 -8c-11 73 -48 117 -98 145c-34 19 -84 31 -127 31c-41 0 -83 -9 -116 -30c-34 -22 -70 -59 -70 -118c0 -22 8 -56 32 -77c30 -26 66 -39 112 -53l131 -39c47 -14 99 -32 135 -67z" />
    <glyph glyph-name="uni0218" unicode="&#x218;" horiz-adv-x="589" 
d="M556 525l-42 -8c-11 73 -48 117 -98 145c-34 19 -84 31 -127 31c-41 0 -83 -9 -116 -30c-34 -22 -70 -59 -70 -118c0 -22 8 -56 32 -77c30 -26 66 -39 112 -53l131 -39c47 -14 99 -32 135 -67c34 -34 46 -71 46 -118c0 -67 -28 -124 -77 -158s-104 -48 -177 -48
s-157 21 -217 83c-31 33 -50 73 -58 111l42 8c9 -34 25 -68 59 -98c45 -40 101 -62 175 -62c54 0 111 12 149 40c39 28 63 67 63 124c0 30 -10 63 -33 86c-30 31 -73 43 -119 57l-131 39c-44 13 -90 24 -129 60c-33 30 -48 68 -48 109c0 69 37 126 93 159
c41 24 92 34 137 34c52 0 116 -13 157 -39c52 -33 98 -83 111 -171zM328 -150c0 -51 -36 -69 -60 -69v30c10 0 34 10 31 39h-31v60h60v-60z" />
    <glyph glyph-name="uni1E9E" unicode="&#x1e9e;" horiz-adv-x="575" 
d="M70 0v512c0 44 5 87 20 119c32 69 87 104 164 104c98 0 167 -66 178 -159l-157 -158c127 29 240 -77 240 -209c0 -135 -72 -224 -218 -224c-39 0 -68 6 -97 15v42c35 -9 65 -13 99 -13c112 0 171 66 171 180c0 100 -82 201 -246 155l-11 49l172 179
c-16 64 -70 101 -131 101c-50 0 -99 -27 -123 -85c-13 -31 -15 -73 -15 -117v-491h-46z" />
    <glyph glyph-name="T" unicode="T" horiz-adv-x="590" 
d="M580 720v-42h-264v-678h-42v678h-264v42h570z" />
    <glyph glyph-name="Tbar" unicode="&#x166;" horiz-adv-x="590" 
d="M580 678h-264v-297h189v-42h-189v-339h-42v339h-189v42h189v297h-264v42h570v-42z" />
    <glyph glyph-name="Tcaron" unicode="&#x164;" horiz-adv-x="590" 
d="M418 877l-123 -91l-123 91l23 32l100 -74l100 74zM580 720v-42h-264v-678h-42v678h-264v42h570z" />
    <glyph glyph-name="uni0162" unicode="&#x162;" horiz-adv-x="590" 
d="M316 678v-678l-28 -71c19 -8 37 -23 48 -43c15 -26 13 -63 -5 -88c-16 -26 -50 -40 -79 -37c-19 1 -36 7 -52 14l14 37c14 -5 28 -9 40 -10c19 -1 34 6 42 20c9 14 11 30 3 45c-10 21 -30 26 -62 37l37 96v678h-264v42h570v-42h-264z" />
    <glyph glyph-name="uni021A" unicode="&#x21a;" horiz-adv-x="590" 
d="M10 720h570v-42h-264v-678h-42v678h-264v42zM265 -150v60h60v-60c0 -51 -36 -69 -60 -69v30c10 0 34 10 31 39h-31z" />
    <glyph glyph-name="U" unicode="U" horiz-adv-x="690" 
d="M620 720v-467c0 -26 -6 -62 -16 -90c-41 -116 -136 -176 -259 -178c-128 -2 -232 75 -263 185c-8 28 -12 59 -12 83v467h42v-415c0 -42 -1 -80 6 -111c23 -101 121 -170 227 -170s200 73 223 169c8 33 10 69 10 112v415h42z" />
    <glyph glyph-name="Uacute" unicode="&#xda;" horiz-adv-x="690" 
d="M245 786l200 93l-17 35l-200 -93zM620 720v-467c0 -26 -6 -62 -16 -90c-41 -116 -136 -176 -259 -178c-128 -2 -232 75 -263 185c-8 28 -12 59 -12 83v467h42v-415c0 -42 -1 -80 6 -111c23 -101 121 -170 227 -170s200 73 223 169c8 33 10 69 10 112v415h42z" />
    <glyph glyph-name="Ucircumflex" unicode="&#xdb;" horiz-adv-x="690" 
d="M245 786l100 74l100 -74l23 32l-123 91l-123 -91zM620 720v-467c0 -26 -6 -62 -16 -90c-41 -116 -136 -176 -259 -178c-128 -2 -232 75 -263 185c-8 28 -12 59 -12 83v467h42v-415c0 -42 -1 -80 6 -111c23 -101 121 -170 227 -170s200 73 223 169c8 33 10 69 10 112v415
h42z" />
    <glyph glyph-name="Udieresis" unicode="&#xdc;" horiz-adv-x="690" 
d="M225 900h60v-60h-60v60zM405 900h60v-60h-60v60zM620 720v-467c0 -26 -6 -62 -16 -90c-41 -116 -136 -176 -259 -178c-128 -2 -232 75 -263 185c-8 28 -12 59 -12 83v467h42v-415c0 -42 -1 -80 6 -111c23 -101 121 -170 227 -170s200 73 223 169c8 33 10 69 10 112v415
h42z" />
    <glyph glyph-name="Ugrave" unicode="&#xd9;" horiz-adv-x="690" 
d="M428 786l17 35l-200 93l-17 -35zM620 720v-467c0 -26 -6 -62 -16 -90c-41 -116 -136 -176 -259 -178c-128 -2 -232 75 -263 185c-8 28 -12 59 -12 83v467h42v-415c0 -42 -1 -80 6 -111c23 -101 121 -170 227 -170s200 73 223 169c8 33 10 69 10 112v415h42z" />
    <glyph glyph-name="Uhungarumlaut" unicode="&#x170;" horiz-adv-x="690" 
d="M274 793l95 93l-27 28l-95 -93zM409 793l95 93l-27 28l-95 -93zM620 720v-467c0 -26 -6 -62 -16 -90c-41 -116 -136 -176 -259 -178c-128 -2 -232 75 -263 185c-8 28 -12 59 -12 83v467h42v-415c0 -42 -1 -80 6 -111c23 -101 121 -170 227 -170s200 73 223 169
c8 33 10 69 10 112v415h42z" />
    <glyph glyph-name="Umacron" unicode="&#x16a;" horiz-adv-x="690" 
d="M225 882h240v-42h-240v42zM620 720v-467c0 -26 -6 -62 -16 -90c-41 -116 -136 -176 -259 -178c-128 -2 -232 75 -263 185c-8 28 -12 59 -12 83v467h42v-415c0 -42 -1 -80 6 -111c23 -101 121 -170 227 -170s200 73 223 169c8 33 10 69 10 112v415h42z" />
    <glyph glyph-name="Uogonek" unicode="&#x172;" horiz-adv-x="690" 
d="M578 720h42v-467c0 -26 -6 -62 -16 -90c-16 -46 -41 -84 -74 -112c-43 -50 -67 -74 -84 -100c-19 -29 -36 -59 -43 -85c-6 -19 -5 -38 8 -51c27 -27 62 -9 86 13l26 -29c-12 -12 -27 -23 -45 -31c-36 -15 -75 -7 -96 17c-24 24 -29 56 -19 92c9 29 25 59 44 86
c9 13 18 24 27 35c-28 -8 -57 -12 -89 -13c-128 -2 -232 75 -263 185c-8 28 -12 59 -12 83v467h42v-415c0 -42 -1 -80 6 -111c23 -101 121 -170 227 -170s200 73 223 169c8 33 10 69 10 112v415z" />
    <glyph glyph-name="Uring" unicode="&#x16e;" horiz-adv-x="690" 
d="M345 929c55 0 99 -45 99 -99c0 -55 -44 -99 -99 -99c-54 0 -99 44 -99 99c0 54 45 99 99 99zM345 890c-33 0 -60 -27 -60 -60s27 -60 60 -60c34 0 60 27 60 60s-26 60 -60 60zM620 720v-467c0 -26 -6 -62 -16 -90c-41 -116 -136 -176 -259 -178c-128 -2 -232 75 -263 185
c-8 28 -12 59 -12 83v467h42v-415c0 -42 -1 -80 6 -111c23 -101 121 -170 227 -170s200 73 223 169c8 33 10 69 10 112v415h42z" />
    <glyph glyph-name="V" unicode="V" horiz-adv-x="579" 
d="M267 0l-262 720h45l239 -659l240 659h45l-262 -720h-45z" />
    <glyph glyph-name="W" unicode="W" horiz-adv-x="909" 
d="M845 720h44l-206 -720h-44l-185 643l-184 -643h-44l-206 720h43l185 -644l184 644h44l185 -644z" />
    <glyph glyph-name="Wacute" unicode="&#x1e82;" horiz-adv-x="909" 
d="M348 786l200 93l-17 35l-200 -93zM845 720h44l-206 -720h-44l-185 643l-184 -643h-44l-206 720h43l185 -644l184 644h44l185 -644z" />
    <glyph glyph-name="Wcircumflex" unicode="&#x174;" horiz-adv-x="909" 
d="M355 786l100 74l100 -74l23 32l-123 91l-123 -91zM845 720h44l-206 -720h-44l-185 643l-184 -643h-44l-206 720h43l185 -644l184 644h44l185 -644z" />
    <glyph glyph-name="Wdieresis" unicode="&#x1e84;" horiz-adv-x="909" 
d="M335 900h60v-60h-60v60zM515 900h60v-60h-60v60zM845 720h44l-206 -720h-44l-185 643l-184 -643h-44l-206 720h43l185 -644l184 644h44l185 -644z" />
    <glyph glyph-name="Wgrave" unicode="&#x1e80;" horiz-adv-x="909" 
d="M536 786l17 35l-200 93l-17 -35zM845 720h44l-206 -720h-44l-185 643l-184 -643h-44l-206 720h43l185 -644l184 644h44l185 -644z" />
    <glyph glyph-name="X" unicode="X" 
d="M310 365l253 -365h-50l-227 330l-226 -330h-50l253 365l-247 355h50l220 -321l221 321h50z" />
    <glyph glyph-name="Y" unicode="Y" horiz-adv-x="519" 
d="M471 720h48l-238 -414v-306h-42v306l-239 414h48l212 -366z" />
    <glyph glyph-name="Yacute" unicode="&#xdd;" horiz-adv-x="519" 
d="M178 786l200 93l-17 35l-200 -93zM471 720h48l-238 -414v-306h-42v306l-239 414h48l212 -366z" />
    <glyph glyph-name="Ycircumflex" unicode="&#x176;" horiz-adv-x="519" 
d="M160 786l100 74l100 -74l23 32l-123 91l-123 -91zM471 720h48l-238 -414v-306h-42v306l-239 414h48l212 -366z" />
    <glyph glyph-name="Ydieresis" unicode="&#x178;" horiz-adv-x="519" 
d="M140 900h60v-60h-60v60zM320 900h60v-60h-60v60zM471 720h48l-238 -414v-306h-42v306l-239 414h48l212 -366z" />
    <glyph glyph-name="Ygrave" unicode="&#x1ef2;" horiz-adv-x="519" 
d="M361 786l17 35l-200 93l-17 -35zM471 720h48l-238 -414v-306h-42v306l-239 414h48l212 -366z" />
    <glyph glyph-name="Z" unicode="Z" horiz-adv-x="581" 
d="M114 41h417v-41h-481v15l419 663h-419v42h481v-17z" />
    <glyph glyph-name="Zacute" unicode="&#x179;" horiz-adv-x="581" 
d="M229 786l200 93l-17 35l-200 -93zM114 41h417v-41h-481v15l419 663h-419v42h481v-17z" />
    <glyph glyph-name="Zcaron" unicode="&#x17d;" horiz-adv-x="581" 
d="M216 909l-23 -32l123 -91l123 91l-23 32l-100 -74zM114 41h417v-41h-481v15l419 663h-419v42h481v-17z" />
    <glyph glyph-name="Zdotaccent" unicode="&#x17b;" horiz-adv-x="581" 
d="M287 900h60v-60h-60v60zM114 41h417v-41h-481v15l419 663h-419v42h481v-17z" />
    <glyph glyph-name="a" unicode="a" horiz-adv-x="542" 
d="M482 0h-39v98c-45 -80 -129 -113 -226 -113c-100 0 -177 61 -177 161c0 67 38 125 136 148c78 18 162 25 264 38c0 116 -54 181 -160 181c-89 0 -153 -31 -175 -116l-44 14c22 99 107 144 222 144c100 0 166 -51 190 -138c7 -26 9 -51 9 -79v-338zM416 134
c23 47 24 117 24 157c-96 -10 -176 -14 -250 -35c-65 -18 -106 -54 -106 -110c0 -76 56 -119 134 -119c91 0 162 34 198 107z" />
    <glyph glyph-name="aacute" unicode="&#xe1;" horiz-adv-x="542" 
d="M192 606l200 93l-17 35l-200 -93zM482 0h-39v98c-45 -80 -129 -113 -226 -113c-100 0 -177 61 -177 161c0 67 38 125 136 148c78 18 162 25 264 38c0 116 -54 181 -160 181c-89 0 -153 -31 -175 -116l-44 14c22 99 107 144 222 144c100 0 166 -51 190 -138
c7 -26 9 -51 9 -79v-338zM416 134c23 47 24 117 24 157c-96 -10 -176 -14 -250 -35c-65 -18 -106 -54 -106 -110c0 -76 56 -119 134 -119c91 0 162 34 198 107z" />
    <glyph glyph-name="abreve" unicode="&#x103;" horiz-adv-x="542" 
d="M355 714h39c0 -63 -51 -114 -114 -114s-114 51 -114 114h39c0 -41 34 -75 75 -75c42 0 75 34 75 75zM482 0h-39v98c-45 -80 -129 -113 -226 -113c-100 0 -177 61 -177 161c0 67 38 125 136 148c78 18 162 25 264 38c0 116 -54 181 -160 181c-89 0 -153 -31 -175 -116
l-44 14c22 99 107 144 222 144c100 0 166 -51 190 -138c7 -26 9 -51 9 -79v-338zM416 134c23 47 24 117 24 157c-96 -10 -176 -14 -250 -35c-65 -18 -106 -54 -106 -110c0 -76 56 -119 134 -119c91 0 162 34 198 107z" />
    <glyph glyph-name="acircumflex" unicode="&#xe2;" horiz-adv-x="542" 
d="M189 606l100 74l100 -74l23 32l-123 91l-123 -91zM482 0h-39v98c-45 -80 -129 -113 -226 -113c-100 0 -177 61 -177 161c0 67 38 125 136 148c78 18 162 25 264 38c0 116 -54 181 -160 181c-89 0 -153 -31 -175 -116l-44 14c22 99 107 144 222 144
c100 0 166 -51 190 -138c7 -26 9 -51 9 -79v-338zM416 134c23 47 24 117 24 157c-96 -10 -176 -14 -250 -35c-65 -18 -106 -54 -106 -110c0 -76 56 -119 134 -119c91 0 162 34 198 107z" />
    <glyph glyph-name="adieresis" unicode="&#xe4;" horiz-adv-x="542" 
d="M164 720h60v-60h-60v60zM344 720h60v-60h-60v60zM482 0h-39v98c-45 -80 -129 -113 -226 -113c-100 0 -177 61 -177 161c0 67 38 125 136 148c78 18 162 25 264 38c0 116 -54 181 -160 181c-89 0 -153 -31 -175 -116l-44 14c22 99 107 144 222 144c100 0 166 -51 190 -138
c7 -26 9 -51 9 -79v-338zM416 134c23 47 24 117 24 157c-96 -10 -176 -14 -250 -35c-65 -18 -106 -54 -106 -110c0 -76 56 -119 134 -119c91 0 162 34 198 107z" />
    <glyph glyph-name="agrave" unicode="&#xe0;" horiz-adv-x="542" 
d="M400 606l17 35l-200 93l-17 -35zM482 0h-39v98c-45 -80 -129 -113 -226 -113c-100 0 -177 61 -177 161c0 67 38 125 136 148c78 18 162 25 264 38c0 116 -54 181 -160 181c-89 0 -153 -31 -175 -116l-44 14c22 99 107 144 222 144c100 0 166 -51 190 -138
c7 -26 9 -51 9 -79v-338zM416 134c23 47 24 117 24 157c-96 -10 -176 -14 -250 -35c-65 -18 -106 -54 -106 -110c0 -76 56 -119 134 -119c91 0 162 34 198 107z" />
    <glyph glyph-name="amacron" unicode="&#x101;" horiz-adv-x="542" 
d="M174 702h240v-42h-240v42zM482 0h-39v98c-45 -80 -129 -113 -226 -113c-100 0 -177 61 -177 161c0 67 38 125 136 148c78 18 162 25 264 38c0 116 -54 181 -160 181c-89 0 -153 -31 -175 -116l-44 14c22 99 107 144 222 144c100 0 166 -51 190 -138c7 -26 9 -51 9 -79
v-338zM416 134c23 47 24 117 24 157c-96 -10 -176 -14 -250 -35c-65 -18 -106 -54 -106 -110c0 -76 56 -119 134 -119c91 0 162 34 198 107z" />
    <glyph glyph-name="aogonek" unicode="&#x105;" horiz-adv-x="542" 
d="M503 -172l26 -29c-12 -12 -27 -23 -45 -31c-36 -15 -75 -7 -96 17c-24 24 -29 56 -19 92c13 44 43 87 79 123h-5v98c-45 -80 -129 -113 -226 -113c-100 0 -177 61 -177 161c0 67 38 125 136 148c78 18 162 25 264 38c0 116 -54 181 -160 181c-89 0 -153 -31 -175 -116
l-44 14c22 99 107 144 222 144c100 0 166 -51 190 -138c7 -26 9 -51 9 -79v-308l1 1l24 -31c-22 -17 -42 -38 -59 -60c-17 -23 -32 -48 -39 -74c-6 -19 -5 -38 8 -51c27 -27 62 -9 86 13zM416 134c23 47 24 117 24 157c-96 -10 -176 -14 -250 -35
c-65 -18 -106 -54 -106 -110c0 -76 56 -119 134 -119c91 0 162 34 198 107z" />
    <glyph glyph-name="aring" unicode="&#xe5;" horiz-adv-x="542" 
d="M473 417c7 -26 9 -51 9 -79v-338h-39v98c-45 -80 -129 -113 -226 -113c-100 0 -177 61 -177 161c0 67 38 125 136 148c78 18 162 25 264 38c0 116 -54 181 -160 181c-89 0 -153 -31 -175 -116l-44 14c17 76 71 120 148 137c-17 17 -27 41 -27 67c0 54 45 99 99 99
c55 0 99 -45 99 -99c0 -27 -11 -52 -28 -69c62 -19 103 -64 121 -129zM281 675c-33 0 -60 -27 -60 -60s27 -60 60 -60c34 0 60 27 60 60s-26 60 -60 60zM416 134c23 47 24 117 24 157c-96 -10 -176 -14 -250 -35c-65 -18 -106 -54 -106 -110c0 -76 56 -119 134 -119
c91 0 162 34 198 107z" />
    <glyph glyph-name="atilde" unicode="&#xe3;" horiz-adv-x="542" 
d="M428 715c4 -15 4 -33 -5 -50c-11 -19 -32 -28 -49 -29c-31 -3 -57 7 -81 17c-36 15 -55 24 -76 22c-25 -2 -28 -26 -22 -40h-36c-4 15 -4 33 5 50c11 19 32 28 49 29c31 3 57 -7 81 -17c36 -15 55 -24 76 -22c25 2 28 26 22 40h36zM482 0h-39v98
c-45 -80 -129 -113 -226 -113c-100 0 -177 61 -177 161c0 67 38 125 136 148c78 18 162 25 264 38c0 116 -54 181 -160 181c-89 0 -153 -31 -175 -116l-44 14c22 99 107 144 222 144c100 0 166 -51 190 -138c7 -26 9 -51 9 -79v-338zM416 134c23 47 24 117 24 157
c-96 -10 -176 -14 -250 -35c-65 -18 -106 -54 -106 -110c0 -76 56 -119 134 -119c91 0 162 34 198 107z" />
    <glyph glyph-name="ae" unicode="&#xe6;" horiz-adv-x="964" 
d="M691 27c85 0 150 41 187 122l33 -20c-41 -94 -120 -144 -220 -144c-109 0 -183 62 -215 160c-3 -7 -6 -15 -10 -22c-25 -49 -63 -86 -110 -109s-101 -30 -152 -27c-57 7 -111 28 -138 75c-32 46 -33 97 -12 147c20 49 68 77 128 85c49 6 102 6 166 6h111v1
c-1 89 -16 132 -54 167c-33 30 -84 44 -134 44c-60 1 -116 -22 -154 -69c-6 -7 -11 -16 -15 -23l-40 19c6 10 13 21 20 30c44 57 115 85 188 85c56 0 117 -12 164 -53c25 -23 42 -50 53 -79c36 83 106 133 204 133c158 0 233 -120 233 -297h-424c4 -140 69 -231 191 -231z
M691 513c-118 2 -182 -86 -190 -213h379c-11 132 -72 215 -189 213zM429 142c18 35 28 75 29 118h-91c-77 0 -148 -1 -179 -5c-46 -6 -76 -28 -92 -61s-15 -76 7 -109c23 -35 70 -56 106 -59c45 -4 91 4 129 23c37 19 73 58 91 93z" />
    <glyph glyph-name="b" unicode="b" horiz-adv-x="576" 
d="M309 555c145 0 227 -125 227 -284c0 -162 -82 -286 -235 -286c-90 0 -156 50 -192 127v-112h-39v720h42v-284c37 73 104 119 197 119zM301 27c125 0 190 105 190 244c0 138 -61 242 -190 242c-126 0 -192 -101 -192 -242c0 -139 65 -244 192 -244z" />
    <glyph glyph-name="c" unicode="c" horiz-adv-x="539" 
d="M504 421l-40 -17c-30 69 -96 109 -177 109c-136 0 -200 -99 -202 -243c2 -147 69 -243 202 -243c79 0 143 37 176 108l41 -18c-45 -87 -119 -132 -217 -132c-161 0 -244 116 -247 285c3 173 87 285 247 285c100 0 184 -51 217 -134z" />
    <glyph glyph-name="cacute" unicode="&#x107;" horiz-adv-x="539" 
d="M196 606l200 93l-17 35l-200 -93zM504 421l-40 -17c-30 69 -96 109 -177 109c-136 0 -200 -99 -202 -243c2 -147 69 -243 202 -243c79 0 143 37 176 108l41 -18c-45 -87 -119 -132 -217 -132c-161 0 -244 116 -247 285c3 173 87 285 247 285c100 0 184 -51 217 -134z" />
    <glyph glyph-name="ccaron" unicode="&#x10d;" horiz-adv-x="539" 
d="M187 729l-23 -32l123 -91l123 91l-23 32l-100 -74zM504 421l-40 -17c-30 69 -96 109 -177 109c-136 0 -200 -99 -202 -243c2 -147 69 -243 202 -243c79 0 143 37 176 108l41 -18c-45 -87 -119 -132 -217 -132c-161 0 -244 116 -247 285c3 173 87 285 247 285
c100 0 184 -51 217 -134z" />
    <glyph glyph-name="ccedilla" unicode="&#xe7;" horiz-adv-x="539" 
d="M287 27c79 0 143 37 176 108l41 -18c-39 -75 -99 -119 -177 -129l-22 -59c19 -8 37 -23 48 -43c15 -26 13 -63 -5 -88c-16 -26 -50 -40 -79 -37c-19 1 -36 7 -52 14l14 37c14 -5 28 -9 40 -10c19 -1 34 6 42 20c9 14 11 30 3 45c-10 21 -30 26 -62 37l30 81
c-159 2 -241 117 -244 285c3 173 87 285 247 285c100 0 184 -51 217 -134l-40 -17c-30 69 -96 109 -177 109c-136 0 -200 -99 -202 -243c2 -147 69 -243 202 -243z" />
    <glyph glyph-name="cdotaccent" unicode="&#x10b;" horiz-adv-x="539" 
d="M262 720h60v-60h-60v60zM504 421l-40 -17c-30 69 -96 109 -177 109c-136 0 -200 -99 -202 -243c2 -147 69 -243 202 -243c79 0 143 37 176 108l41 -18c-45 -87 -119 -132 -217 -132c-161 0 -244 116 -247 285c3 173 87 285 247 285c100 0 184 -51 217 -134z" />
    <glyph glyph-name="d" unicode="d" horiz-adv-x="576" 
d="M464 720h42v-720h-39v112c-36 -77 -102 -127 -192 -127c-153 0 -235 124 -235 286c0 159 82 284 227 284c93 0 160 -46 197 -119v284zM275 27c127 0 192 105 192 244c0 141 -66 242 -192 242c-129 0 -190 -104 -190 -242c0 -139 65 -244 190 -244z" />
    <glyph glyph-name="eth" unicode="&#xf0;" 
d="M488 572c39 -75 45 -151 45 -319c0 -72 -19 -142 -61 -191c-46 -54 -119 -78 -185 -77c-67 -1 -139 23 -186 77c-46 54 -60 125 -61 190c1 66 15 137 61 190c47 55 119 78 186 77c66 1 139 -22 185 -77c5 -5 9 -11 13 -17c-5 45 -16 89 -35 128c-22 44 -52 77 -89 100
l-58 -74l-33 26l52 67c-28 11 -59 18 -92 20l5 41c42 -3 81 -11 115 -26l59 75l33 -26l-55 -69c43 -28 77 -66 101 -115zM439 90c36 43 49 103 49 163c0 59 -13 119 -49 161c-36 43 -94 64 -152 63c-59 1 -117 -20 -153 -63c-36 -42 -49 -103 -49 -162s13 -119 49 -162
s94 -63 153 -63c58 0 116 20 152 63z" />
    <glyph glyph-name="dcaron" unicode="&#x10f;" horiz-adv-x="673" 
d="M620 730h60v-120c0 -41 -22 -66 -60 -59l3 26c35 -2 30 31 30 63h-33v90zM464 436v284h42v-720h-39v112c-36 -77 -102 -127 -192 -127c-153 0 -235 124 -235 286c0 159 82 284 227 284c93 0 160 -46 197 -119zM275 27c127 0 192 105 192 244c0 141 -66 242 -192 242
c-129 0 -190 -104 -190 -242c0 -139 65 -244 190 -244z" />
    <glyph glyph-name="dcroat" unicode="&#x111;" horiz-adv-x="576" 
d="M580 642v-42h-74v-600h-39v112c-36 -77 -102 -127 -192 -127c-153 0 -235 124 -235 286c0 159 82 284 227 284c93 0 160 -46 197 -119v164h-124v42h124v78h42v-78h74zM275 27c127 0 192 105 192 244c0 141 -66 242 -192 242c-129 0 -190 -104 -190 -242
c0 -139 65 -244 190 -244z" />
    <glyph glyph-name="e" unicode="e" 
d="M287 27c90 0 158 41 198 122l35 -20c-44 -94 -127 -144 -233 -144c-159 0 -247 118 -247 285c0 170 89 285 247 285c167 0 246 -120 246 -297h-448c4 -140 73 -231 202 -231zM287 513c-125 2 -192 -86 -201 -213h400c-11 132 -76 215 -199 213z" />
    <glyph glyph-name="eacute" unicode="&#xe9;" 
d="M395 699l-200 -93l-17 35l200 93zM287 27c90 0 158 41 198 122l35 -20c-44 -94 -127 -144 -233 -144c-159 0 -247 118 -247 285c0 170 89 285 247 285c167 0 246 -120 246 -297h-448c4 -140 73 -231 202 -231zM287 513c-125 2 -192 -86 -201 -213h400
c-11 132 -76 215 -199 213z" />
    <glyph glyph-name="ecaron" unicode="&#x11b;" 
d="M425 697l-123 -91l-123 91l23 32l100 -74l100 74zM287 27c90 0 158 41 198 122l35 -20c-44 -94 -127 -144 -233 -144c-159 0 -247 118 -247 285c0 170 89 285 247 285c167 0 246 -120 246 -297h-448c4 -140 73 -231 202 -231zM287 513c-125 2 -192 -86 -201 -213h400
c-11 132 -76 215 -199 213z" />
    <glyph glyph-name="ecircumflex" unicode="&#xea;" 
d="M287 680l-100 -74l-23 32l123 91l123 -91l-23 -32zM287 27c90 0 158 41 198 122l35 -20c-44 -94 -127 -144 -233 -144c-159 0 -247 118 -247 285c0 170 89 285 247 285c167 0 246 -120 246 -297h-448c4 -140 73 -231 202 -231zM287 513c-125 2 -192 -86 -201 -213h400
c-11 132 -76 215 -199 213z" />
    <glyph glyph-name="edieresis" unicode="&#xeb;" 
d="M227 720v-60h-60v60h60zM407 720v-60h-60v60h60zM287 27c90 0 158 41 198 122l35 -20c-44 -94 -127 -144 -233 -144c-159 0 -247 118 -247 285c0 170 89 285 247 285c167 0 246 -120 246 -297h-448c4 -140 73 -231 202 -231zM287 513c-125 2 -192 -86 -201 -213h400
c-11 132 -76 215 -199 213z" />
    <glyph glyph-name="edotaccent" unicode="&#x117;" 
d="M317 720v-60h-60v60h60zM287 27c90 0 158 41 198 122l35 -20c-44 -94 -127 -144 -233 -144c-159 0 -247 118 -247 285c0 170 89 285 247 285c167 0 246 -120 246 -297h-448c4 -140 73 -231 202 -231zM287 513c-125 2 -192 -86 -201 -213h400c-11 132 -76 215 -199 213z
" />
    <glyph glyph-name="egrave" unicode="&#xe8;" 
d="M415 641l-17 -35l-200 93l17 35zM287 27c90 0 158 41 198 122l35 -20c-44 -94 -127 -144 -233 -144c-159 0 -247 118 -247 285c0 170 89 285 247 285c167 0 246 -120 246 -297h-448c4 -140 73 -231 202 -231zM287 513c-125 2 -192 -86 -201 -213h400
c-11 132 -76 215 -199 213z" />
    <glyph glyph-name="emacron" unicode="&#x113;" 
d="M417 702v-42h-240v42h240zM287 27c90 0 158 41 198 122l35 -20c-44 -94 -127 -144 -233 -144c-159 0 -247 118 -247 285c0 170 89 285 247 285c167 0 246 -120 246 -297h-448c4 -140 73 -231 202 -231zM287 513c-125 2 -192 -86 -201 -213h400c-11 132 -76 215 -199 213z
" />
    <glyph glyph-name="eogonek" unicode="&#x119;" 
d="M392 -56c-17 -25 -34 -52 -41 -78c-5 -19 -6 -37 8 -51c27 -27 62 -9 86 13l26 -29c-12 -12 -27 -23 -45 -31c-36 -15 -73 -6 -96 17c-24 24 -29 56 -19 92c8 29 24 57 44 83c8 10 22 26 40 45c-33 -13 -69 -20 -108 -20c-159 0 -247 118 -247 285c0 170 89 285 247 285
c167 0 246 -120 246 -297h-448c4 -140 73 -231 202 -231c90 0 158 41 198 122l35 -20c-2 -3 -3 -7 -5 -10c-29 -62 -107 -152 -123 -175zM287 513c-125 2 -192 -86 -201 -213h400c-11 132 -76 215 -199 213z" />
    <glyph glyph-name="f" unicode="f" horiz-adv-x="339" 
d="M264 697c-63 0 -94 -27 -94 -100v-57h159v-42h-159v-498h-42v498h-98v42h98v61c-1 42 7 73 32 100c24 25 56 34 99 34h70v-38h-65z" />
    <glyph glyph-name="g" unicode="g" horiz-adv-x="576" 
d="M467 540h39v-510c0 -33 -1 -63 -5 -93c-16 -131 -86 -192 -225 -192c-78 0 -163 29 -212 120l37 25c36 -74 108 -102 175 -102c145 0 187 82 187 242v74c-37 -73 -101 -119 -188 -119c-153 0 -235 124 -235 286c0 159 82 284 227 284c96 0 163 -48 200 -125v110zM275 27
c127 0 192 105 192 244c0 141 -66 242 -192 242c-129 0 -190 -104 -190 -242c0 -139 65 -244 190 -244z" />
    <glyph glyph-name="gbreve" unicode="&#x11f;" horiz-adv-x="576" 
d="M302 600c-63 0 -114 51 -114 114h39c0 -41 34 -75 75 -75c42 0 75 34 75 75h39c0 -63 -51 -114 -114 -114zM467 540h39v-510c0 -33 -1 -63 -5 -93c-16 -131 -86 -192 -225 -192c-78 0 -163 29 -212 120l37 25c36 -74 108 -102 175 -102c145 0 187 82 187 242v74
c-37 -73 -101 -119 -188 -119c-153 0 -235 124 -235 286c0 159 82 284 227 284c96 0 163 -48 200 -125v110zM275 27c127 0 192 105 192 244c0 141 -66 242 -192 242c-129 0 -190 -104 -190 -242c0 -139 65 -244 190 -244z" />
    <glyph glyph-name="uni0123" unicode="&#x123;" horiz-adv-x="576" 
d="M323 660v-60h-60v60c0 51 36 69 60 69v-30c-10 0 -34 -10 -31 -39h31zM467 540h39v-510c0 -33 -1 -63 -5 -93c-16 -131 -86 -192 -225 -192c-78 0 -163 29 -212 120l37 25c36 -74 108 -102 175 -102c145 0 187 82 187 242v74c-37 -73 -101 -119 -188 -119
c-153 0 -235 124 -235 286c0 159 82 284 227 284c96 0 163 -48 200 -125v110zM275 27c127 0 192 105 192 244c0 141 -66 242 -192 242c-129 0 -190 -104 -190 -242c0 -139 65 -244 190 -244z" />
    <glyph glyph-name="gdotaccent" unicode="&#x121;" horiz-adv-x="576" 
d="M333 720v-60h-60v60h60zM467 540h39v-510c0 -33 -1 -63 -5 -93c-16 -131 -86 -192 -225 -192c-78 0 -163 29 -212 120l37 25c36 -74 108 -102 175 -102c145 0 187 82 187 242v74c-37 -73 -101 -119 -188 -119c-153 0 -235 124 -235 286c0 159 82 284 227 284
c96 0 163 -48 200 -125v110zM275 27c127 0 192 105 192 244c0 141 -66 242 -192 242c-129 0 -190 -104 -190 -242c0 -139 65 -244 190 -244z" />
    <glyph glyph-name="h" unicode="h" 
d="M417 517c82 -56 98 -152 96 -254v-263h-42v263c0 97 -9 174 -77 220c-33 21 -73 30 -114 28c-40 -2 -79 -16 -107 -43c-29 -26 -47 -64 -54 -104c-5 -22 -7 -45 -7 -69v-295h-42v720h39v-268c10 17 22 32 36 46c36 34 85 51 133 53c47 4 97 -6 139 -34z" />
    <glyph glyph-name="hbar" unicode="&#x127;" 
d="M417 517c82 -56 98 -152 96 -254v-263h-42v263c0 97 -9 174 -77 220c-33 21 -73 30 -114 28c-40 -2 -79 -16 -107 -43c-29 -26 -47 -64 -54 -104c-5 -22 -7 -45 -7 -69v-295h-42v600h-70v42h70v78h39v-78h131v-42h-131v-148c10 17 22 32 36 46c36 34 85 51 133 53
c47 4 97 -6 139 -34z" />
    <glyph glyph-name="i" unicode="i" horiz-adv-x="202" 
d="M80 730h42v-64h-42v64zM80 540v-540h42v540h-42z" />
    <glyph glyph-name="dotlessi" unicode="&#x131;" horiz-adv-x="202" 
d="M80 540v-540h42v540h-42z" />
    <glyph glyph-name="iacute" unicode="&#xed;" horiz-adv-x="202" 
d="M9 606l200 93l-17 35l-200 -93zM80 540v-540h42v540h-42z" />
    <glyph glyph-name="icircumflex" unicode="&#xee;" horiz-adv-x="202" 
d="M1 606l100 74l100 -74l23 32l-123 91l-123 -91zM80 540v-540h42v540h-42z" />
    <glyph glyph-name="idieresis" unicode="&#xef;" horiz-adv-x="202" 
d="M-19 720h60v-60h-60v60zM161 720h60v-60h-60v60zM80 540v-540h42v540h-42z" />
    <glyph glyph-name="i.loclTRK" horiz-adv-x="202" 
d="M80 730h42v-64h-42v64zM80 540v-540h42v540h-42z" />
    <glyph glyph-name="igrave" unicode="&#xec;" horiz-adv-x="202" 
d="M193 606l17 35l-200 93l-17 -35zM80 540v-540h42v540h-42z" />
    <glyph glyph-name="imacron" unicode="&#x12b;" horiz-adv-x="202" 
d="M-19 702h240v-42h-240v42zM80 540v-540h42v540h-42z" />
    <glyph glyph-name="iogonek" unicode="&#x12f;" horiz-adv-x="202" 
d="M80 730h42v-64h-42v64zM80 540v-540h42v540h-42zM122 0c-22 -17 -42 -38 -59 -60c-17 -23 -32 -48 -39 -74c-6 -19 -5 -38 8 -51c27 -27 62 -9 86 13l26 -29c-12 -12 -27 -23 -45 -31c-36 -15 -75 -7 -96 17c-24 24 -29 56 -19 92c17 58 64 114 114 154z" />
    <glyph glyph-name="j" unicode="j" horiz-adv-x="225" 
d="M103 710h42v-64h-42v64zM24 -197h-34v-43h33c27 0 67 4 93 30c33 34 29 82 29 150v600h-42v-600c0 -66 1 -92 -17 -112s-39 -25 -62 -25z" />
    <glyph glyph-name="k" unicode="k" horiz-adv-x="468" 
d="M70 0v720h42v-440l270 260h63l-282 -270l325 -270h-72l-304 260v-260h-42z" />
    <glyph glyph-name="uni0137" unicode="&#x137;" horiz-adv-x="468" 
d="M70 0v720h42v-440l270 260h63l-282 -270l325 -270h-72l-304 260v-260h-42zM284 -150c0 -51 -36 -69 -60 -69v30c10 0 34 10 31 39h-31v60h60v-60z" />
    <glyph glyph-name="l" unicode="l" horiz-adv-x="202" 
d="M80 0h42v735h-42v-735z" />
    <glyph glyph-name="lacute" unicode="&#x13a;" horiz-adv-x="202" 
d="M-1 786l200 93l-17 35l-200 -93zM80 0h42v735h-42v-735z" />
    <glyph glyph-name="lcaron" unicode="&#x13e;" horiz-adv-x="260" 
d="M80 0h42v735h-42v-735zM267 610c0 -41 -22 -66 -60 -59l3 26c35 -2 30 31 30 63h-33v90h60v-120z" />
    <glyph glyph-name="uni013C" unicode="&#x13c;" horiz-adv-x="202" 
d="M80 0h42v735h-42v-735zM121 -150c0 -51 -36 -69 -60 -69v30c10 0 34 10 31 39h-31v60h60v-60z" />
    <glyph glyph-name="lslash" unicode="&#x142;" horiz-adv-x="361" 
d="M312 468v-49l-100 -58v-361h-42v337l-121 -70v50l121 69v349h42v-324z" />
    <glyph glyph-name="m" unicode="m" horiz-adv-x="810" 
d="M684 520c65 -50 66 -103 66 -186l-1 -334h-40l1 334c0 70 -1 112 -53 153c-23 19 -53 30 -83 30c-45 0 -86 -19 -113 -53c-26 -34 -30 -67 -30 -105v-25l-1 -334h-40l1 334c0 70 -1 112 -53 153c-23 19 -53 30 -83 30c-45 0 -86 -19 -113 -53c-26 -34 -30 -67 -30 -105
v-359h-42v540h39v-59l5 6c33 44 87 68 142 68c38 0 77 -11 109 -35c25 -19 40 -39 50 -60c5 9 11 19 18 27c33 44 87 68 142 68c38 0 77 -11 109 -35z" />
    <glyph glyph-name="n" unicode="n" 
d="M417 517c82 -56 98 -152 96 -254v-263h-42v263c0 97 -9 174 -77 220c-33 21 -73 30 -114 28c-40 -2 -79 -16 -107 -43c-29 -26 -47 -64 -54 -104c-5 -22 -7 -44 -7 -67v-297h-42v540h39v-88c10 17 22 32 36 46c36 34 85 51 133 53c47 4 97 -6 139 -34z" />
    <glyph glyph-name="nacute" unicode="&#x144;" 
d="M410 699l-200 -93l-17 35l200 93zM417 517c82 -56 98 -152 96 -254v-263h-42v263c0 97 -9 174 -77 220c-33 21 -73 30 -114 28c-40 -2 -79 -16 -107 -43c-29 -26 -47 -64 -54 -104c-5 -22 -7 -44 -7 -67v-297h-42v540h39v-88c10 17 22 32 36 46c36 34 85 51 133 53
c47 4 97 -6 139 -34z" />
    <glyph glyph-name="ncaron" unicode="&#x148;" 
d="M420 697l-123 -91l-123 91l23 32l100 -74l100 74zM417 517c82 -56 98 -152 96 -254v-263h-42v263c0 97 -9 174 -77 220c-33 21 -73 30 -114 28c-40 -2 -79 -16 -107 -43c-29 -26 -47 -64 -54 -104c-5 -22 -7 -44 -7 -67v-297h-42v540h39v-88c10 17 22 32 36 46
c36 34 85 51 133 53c47 4 97 -6 139 -34z" />
    <glyph glyph-name="uni0146" unicode="&#x146;" 
d="M417 517c82 -56 98 -152 96 -254v-263h-42v263c0 97 -9 174 -77 220c-33 21 -73 30 -114 28c-40 -2 -79 -16 -107 -43c-29 -26 -47 -64 -54 -104c-5 -22 -7 -44 -7 -67v-297h-42v540h39v-88c10 17 22 32 36 46c36 34 85 51 133 53c47 4 97 -6 139 -34zM262 -150v60h60
v-60c0 -51 -36 -69 -60 -69v30c10 0 34 10 31 39h-31z" />
    <glyph glyph-name="eng" unicode="&#x14b;" 
d="M417 517c82 -56 98 -152 96 -254v-358c0 -57 -22 -77 -52 -83c-28 -3 -45 -1 -65 4v41c65 -10 75 7 75 78v318c0 97 -9 174 -77 220c-33 21 -73 30 -114 28c-40 -2 -79 -16 -107 -43c-29 -26 -47 -64 -54 -104c-5 -22 -7 -44 -7 -67v-297h-42v540h39v-88
c10 17 22 32 36 46c36 34 85 51 133 53c47 4 97 -6 139 -34z" />
    <glyph glyph-name="ntilde" unicode="&#xf1;" 
d="M188 635h-36c-4 15 -4 33 5 50c11 19 32 28 49 29c31 3 57 -7 81 -17c36 -15 55 -24 76 -22c25 2 28 26 22 40h36c4 -15 4 -33 -5 -50c-11 -19 -32 -28 -49 -29c-31 -3 -57 7 -81 17c-36 15 -55 24 -76 22c-25 -2 -28 -26 -22 -40zM417 517c82 -56 98 -152 96 -254v-263
h-42v263c0 97 -9 174 -77 220c-33 21 -73 30 -114 28c-40 -2 -79 -16 -107 -43c-29 -26 -47 -64 -54 -104c-5 -22 -7 -44 -7 -67v-297h-42v540h39v-88c10 17 22 32 36 46c36 34 85 51 133 53c47 4 97 -6 139 -34z" />
    <glyph glyph-name="o" unicode="o" horiz-adv-x="574" 
d="M287 -15c-160 0 -247 118 -247 286c0 170 90 284 247 284c161 0 247 -117 247 -284c0 -171 -88 -286 -247 -286zM489 271c0 147 -67 242 -202 242c-137 0 -202 -100 -202 -242c0 -147 69 -244 202 -244c136 0 202 99 202 244z" />
    <glyph glyph-name="oacute" unicode="&#xf3;" horiz-adv-x="574" 
d="M181 606l200 93l-17 35l-200 -93zM287 -15c-160 0 -247 118 -247 286c0 170 90 284 247 284c161 0 247 -117 247 -284c0 -171 -88 -286 -247 -286zM489 271c0 147 -67 242 -202 242c-137 0 -202 -100 -202 -242c0 -147 69 -244 202 -244c136 0 202 99 202 244z" />
    <glyph glyph-name="ocircumflex" unicode="&#xf4;" horiz-adv-x="574" 
d="M187 606l100 74l100 -74l23 32l-123 91l-123 -91zM287 -15c-160 0 -247 118 -247 286c0 170 90 284 247 284c161 0 247 -117 247 -284c0 -171 -88 -286 -247 -286zM489 271c0 147 -67 242 -202 242c-137 0 -202 -100 -202 -242c0 -147 69 -244 202 -244
c136 0 202 99 202 244z" />
    <glyph glyph-name="odieresis" unicode="&#xf6;" horiz-adv-x="574" 
d="M167 720h60v-60h-60v60zM347 720h60v-60h-60v60zM287 -15c-160 0 -247 118 -247 286c0 170 90 284 247 284c161 0 247 -117 247 -284c0 -171 -88 -286 -247 -286zM489 271c0 147 -67 242 -202 242c-137 0 -202 -100 -202 -242c0 -147 69 -244 202 -244
c136 0 202 99 202 244z" />
    <glyph glyph-name="ograve" unicode="&#xf2;" horiz-adv-x="574" 
d="M393 606l17 35l-200 93l-17 -35zM287 -15c-159 0 -247 115 -247 286c0 167 86 284 247 284c157 0 247 -114 247 -284c0 -168 -87 -286 -247 -286zM85 271c0 -145 66 -244 202 -244c133 0 202 97 202 244c0 142 -65 242 -202 242c-135 0 -202 -95 -202 -242z" />
    <glyph glyph-name="ohungarumlaut" unicode="&#x151;" horiz-adv-x="574" 
d="M212 613l95 93l-27 28l-95 -93zM347 613l95 93l-27 28l-95 -93zM287 -15c-160 0 -247 118 -247 286c0 170 90 284 247 284c161 0 247 -117 247 -284c0 -171 -88 -286 -247 -286zM489 271c0 147 -67 242 -202 242c-137 0 -202 -100 -202 -242c0 -147 69 -244 202 -244
c136 0 202 99 202 244z" />
    <glyph glyph-name="omacron" unicode="&#x14d;" horiz-adv-x="574" 
d="M167 702h240v-42h-240v42zM287 -15c-160 0 -247 118 -247 286c0 170 90 284 247 284c161 0 247 -117 247 -284c0 -171 -88 -286 -247 -286zM489 271c0 147 -67 242 -202 242c-137 0 -202 -100 -202 -242c0 -147 69 -244 202 -244c136 0 202 99 202 244z" />
    <glyph glyph-name="oslash" unicode="&#xf8;" horiz-adv-x="574" 
d="M558 511l-66 -66c28 -47 42 -106 42 -174c0 -171 -88 -286 -247 -286c-78 0 -138 28 -180 76l-61 -61l-30 30l66 66c-28 47 -42 107 -42 175c0 170 90 284 247 284c78 0 139 -28 180 -75l61 60zM85 271c0 -56 10 -104 29 -143l323 321c-34 41 -84 64 -150 64
c-137 0 -202 -100 -202 -242zM489 271c0 56 -10 104 -29 142l-322 -321c34 -42 84 -65 149 -65c136 0 202 99 202 244z" />
    <glyph glyph-name="otilde" unicode="&#xf5;" horiz-adv-x="574" 
d="M422 715c4 -15 4 -33 -5 -50c-11 -19 -32 -28 -49 -29c-31 -3 -57 7 -81 17c-36 15 -55 24 -76 22c-25 -2 -28 -26 -22 -40h-36c-4 15 -4 33 5 50c11 19 32 28 49 29c31 3 57 -7 81 -17c36 -15 55 -24 76 -22c25 2 28 26 22 40h36zM287 -15c-160 0 -247 118 -247 286
c0 170 90 284 247 284c161 0 247 -117 247 -284c0 -171 -88 -286 -247 -286zM489 271c0 147 -67 242 -202 242c-137 0 -202 -100 -202 -242c0 -147 69 -244 202 -244c136 0 202 99 202 244z" />
    <glyph glyph-name="oe" unicode="&#x153;" horiz-adv-x="1023" 
d="M737 27c90 0 158 41 198 122l35 -20c-44 -94 -127 -144 -233 -144c-112 0 -189 59 -225 153c-35 -95 -112 -153 -225 -153c-160 0 -247 118 -247 286c0 170 90 284 247 284c114 0 190 -59 225 -152c36 94 113 152 225 152c167 0 246 -120 246 -297h-448
c4 -140 73 -231 202 -231zM737 513c-125 2 -192 -86 -201 -213h400c-11 132 -76 215 -199 213zM287 27c136 0 202 99 202 244c0 147 -67 242 -202 242c-137 0 -202 -100 -202 -242c0 -147 69 -244 202 -244z" />
    <glyph glyph-name="p" unicode="p" horiz-adv-x="576" 
d="M309 555c145 0 227 -125 227 -284c0 -162 -82 -286 -235 -286c-88 0 -152 47 -189 121v-346h-42v780h39v-110c37 77 104 125 200 125zM301 27c125 0 190 105 190 244c0 138 -61 242 -190 242c-126 0 -192 -101 -192 -242c0 -139 65 -244 192 -244z" />
    <glyph glyph-name="thorn" unicode="&#xfe;" horiz-adv-x="576" 
d="M309 555c145 0 227 -125 227 -284c0 -162 -82 -286 -235 -286c-88 0 -152 47 -189 121v-346h-42v960h42v-284c37 73 104 119 197 119zM301 27c125 0 190 105 190 244c0 138 -61 242 -190 242c-126 0 -192 -101 -192 -242c0 -139 65 -244 192 -244z" />
    <glyph glyph-name="q" unicode="q" horiz-adv-x="576" 
d="M467 540h39v-780h-42v346c-37 -74 -101 -121 -189 -121c-153 0 -235 124 -235 286c0 159 82 284 227 284c96 0 163 -48 200 -125v110zM275 27c127 0 192 105 192 244c0 141 -66 242 -192 242c-129 0 -190 -104 -190 -242c0 -139 65 -244 190 -244z" />
    <glyph glyph-name="r" unicode="r" horiz-adv-x="335" 
d="M143 500c44 43 120 55 167 40v-40c-45 10 -98 8 -141 -32c-52 -48 -57 -120 -57 -202v-266h-42v540h39v-84c9 16 20 30 34 44z" />
    <glyph glyph-name="racute" unicode="&#x155;" horiz-adv-x="335" 
d="M287 699l-200 -93l-17 35l200 93zM143 500c44 43 120 55 167 40v-40c-45 10 -98 8 -141 -32c-52 -48 -57 -120 -57 -202v-266h-42v540h39v-84c9 16 20 30 34 44z" />
    <glyph glyph-name="rcaron" unicode="&#x159;" horiz-adv-x="335" 
d="M316 697l-123 -91l-123 91l23 32l100 -74l100 74zM143 500c44 43 120 55 167 40v-40c-45 10 -98 8 -141 -32c-52 -48 -57 -120 -57 -202v-266h-42v540h39v-84c9 16 20 30 34 44z" />
    <glyph glyph-name="uni0157" unicode="&#x157;" horiz-adv-x="335" 
d="M143 500c44 43 120 55 167 40v-40c-45 10 -98 8 -141 -32c-52 -48 -57 -120 -57 -202v-266h-42v540h39v-84c9 16 20 30 34 44zM61 -150v60h60v-60c0 -51 -36 -69 -60 -69v30c10 0 34 10 31 39h-31z" />
    <glyph glyph-name="s" unicode="s" horiz-adv-x="514" 
d="M474 399l-43 -8c-16 91 -95 120 -178 122c-90 2 -153 -42 -153 -103c0 -44 36 -72 102 -90c26 -8 63 -17 116 -31c88 -23 155 -59 155 -143c0 -107 -85 -160 -205 -160c-107 0 -206 42 -228 144l43 8c21 -80 106 -110 189 -110c86 0 156 41 156 114c0 71 -57 88 -127 107
l-99 28c-78 22 -146 53 -146 133c0 96 97 145 198 145c125 0 211 -67 220 -156z" />
    <glyph glyph-name="sacute" unicode="&#x15b;" horiz-adv-x="514" 
d="M179 606l200 93l-17 35l-200 -93zM474 399l-43 -8c-16 91 -95 120 -178 122c-90 2 -153 -42 -153 -103c0 -44 36 -72 102 -90c26 -8 63 -17 116 -31c88 -23 155 -59 155 -143c0 -107 -85 -160 -205 -160c-107 0 -206 42 -228 144l43 8c21 -80 106 -110 189 -110
c86 0 156 41 156 114c0 71 -57 88 -127 107l-99 28c-78 22 -146 53 -146 133c0 96 97 145 198 145c125 0 211 -67 220 -156z" />
    <glyph glyph-name="scaron" unicode="&#x161;" horiz-adv-x="514" 
d="M170 729l-23 -32l123 -91l123 91l-23 32l-100 -74zM474 399l-43 -8c-16 91 -95 120 -178 122c-90 2 -153 -42 -153 -103c0 -44 36 -72 102 -90c26 -8 63 -17 116 -31c88 -23 155 -59 155 -143c0 -107 -85 -160 -205 -160c-107 0 -206 42 -228 144l43 8
c21 -80 106 -110 189 -110c86 0 156 41 156 114c0 71 -57 88 -127 107l-99 28c-78 22 -146 53 -146 133c0 96 97 145 198 145c125 0 211 -67 220 -156z" />
    <glyph glyph-name="scedilla" unicode="&#x15f;" horiz-adv-x="514" 
d="M318 289c88 -23 155 -59 155 -143c0 -97 -70 -150 -172 -159l-22 -58c19 -8 37 -23 48 -43c15 -26 13 -63 -5 -88c-16 -26 -50 -40 -79 -37c-19 1 -36 7 -52 14l14 37c14 -5 28 -9 40 -10c19 -1 34 6 42 20c9 14 11 30 3 45c-10 21 -30 26 -62 37l30 82
c-103 3 -197 45 -218 144l43 8c21 -80 106 -110 189 -110c86 0 156 41 156 114c0 71 -57 88 -127 107l-99 28c-78 22 -146 53 -146 133c0 96 97 145 198 145c125 0 211 -67 220 -156l-43 -8c-16 91 -95 120 -178 122c-90 2 -153 -42 -153 -103c0 -44 36 -72 102 -90
c26 -8 63 -17 116 -31z" />
    <glyph glyph-name="uni0219" unicode="&#x219;" horiz-adv-x="514" 
d="M474 399l-43 -8c-16 91 -95 120 -178 122c-90 2 -153 -42 -153 -103c0 -44 36 -72 102 -90c26 -8 63 -17 116 -31c88 -23 155 -59 155 -143c0 -107 -85 -160 -205 -160c-107 0 -206 42 -228 144l43 8c21 -80 106 -110 189 -110c86 0 156 41 156 114c0 71 -57 88 -127 107
l-99 28c-78 22 -146 53 -146 133c0 96 97 145 198 145c125 0 211 -67 220 -156zM290 -150c0 -51 -36 -69 -60 -69v30c10 0 34 10 31 39h-31v60h60v-60z" />
    <glyph glyph-name="germandbls" unicode="&#xdf;" horiz-adv-x="575" 
d="M70 0v532c0 37 5 71 15 96c28 69 85 107 175 107c114 0 189 -64 189 -186c0 -77 -37 -140 -104 -157c60 -3 170 -65 170 -191c0 -129 -78 -215 -224 -215c-30 0 -62 2 -91 14v42c32 -11 57 -13 91 -13c106 0 179 63 179 172c0 97 -84 160 -210 163v42
c73 9 144 51 144 144c0 90 -54 143 -143 143c-62 0 -117 -28 -135 -87c-8 -26 -10 -56 -10 -85v-521h-46z" />
    <glyph glyph-name="t" unicode="t" horiz-adv-x="379" 
d="M179 498v-319c0 -47 -3 -72 11 -97c11 -27 38 -43 69 -46c30 -3 63 -2 90 4v-40c-32 -7 -63 -9 -95 -5c-47 6 -83 27 -102 68c-16 35 -15 69 -15 116v319h-127v42h127v150h42v-150h170v-42h-170z" />
    <glyph glyph-name="tbar" unicode="&#x167;" horiz-adv-x="399" 
d="M349 498h-170v-207h170v-42h-170v-70c0 -47 -3 -72 11 -97c11 -27 38 -43 69 -46c30 -3 63 -2 90 4v-40c-32 -7 -63 -9 -95 -5c-47 6 -83 27 -102 68c-16 35 -15 69 -15 116v70h-127v42h127v207h-127v42h127v150h42v-150h170v-42z" />
    <glyph glyph-name="tcaron" unicode="&#x165;" horiz-adv-x="379" 
d="M289 800h60v-120c0 -41 -22 -66 -60 -59l3 26c35 -2 30 31 30 63h-33v90zM179 690v-150h170v-42h-170v-319c0 -47 -3 -72 11 -97c11 -27 38 -43 69 -46c30 -3 63 -2 90 4v-40c-32 -7 -63 -9 -95 -5c-47 6 -83 27 -102 68c-16 35 -15 69 -15 116v319h-127v42h127v150h42z
" />
    <glyph glyph-name="uni0163" unicode="&#x163;" horiz-adv-x="399" 
d="M179 498v-319c0 -47 -3 -72 11 -97c11 -27 38 -43 69 -46c30 -3 63 -2 90 4v-40c-32 -7 -63 -9 -95 -5l-18 3l-26 -70c19 -8 37 -23 48 -43c15 -26 13 -63 -5 -88c-16 -26 -50 -40 -79 -37c-19 1 -36 7 -52 14l14 37c14 -5 28 -9 40 -10c19 -1 34 6 42 20
c9 14 11 30 3 45c-10 21 -30 26 -62 37l40 109c-20 11 -36 28 -47 51c-16 35 -15 69 -15 116v319h-127v42h127v150h42v-150h170v-42h-170z" />
    <glyph glyph-name="uni021B" unicode="&#x21b;" horiz-adv-x="379" 
d="M179 498v-319c0 -47 -3 -72 11 -97c11 -27 38 -43 69 -46c30 -3 63 -2 90 4v-40c-32 -7 -63 -9 -95 -5c-47 6 -83 27 -102 68c-16 35 -15 69 -15 116v319h-127v42h127v150h42v-150h170v-42h-170zM158 -150v60h60v-60c0 -51 -36 -69 -60 -69v30c10 0 34 10 31 39h-31z" />
    <glyph glyph-name="u" unicode="u" 
d="M461 540h42v-540h-39v88c-10 -17 -22 -32 -36 -46c-36 -34 -85 -51 -133 -53c-47 -4 -97 6 -139 34c-82 56 -98 152 -96 254v263h42v-263c0 -97 9 -174 77 -220c33 -21 73 -30 114 -28c40 2 79 16 107 43c29 26 47 64 54 104c5 22 7 44 7 67v297z" />
    <glyph glyph-name="uacute" unicode="&#xfa;" 
d="M395 699l-200 -93l-17 35l200 93zM461 540h42v-540h-39v88c-10 -17 -22 -32 -36 -46c-36 -34 -85 -51 -133 -53c-47 -4 -97 6 -139 34c-82 56 -98 152 -96 254v263h42v-263c0 -97 9 -174 77 -220c33 -21 73 -30 114 -28c40 2 79 16 107 43c29 26 47 64 54 104
c5 22 7 44 7 67v297z" />
    <glyph glyph-name="ucircumflex" unicode="&#xfb;" 
d="M281 680l-100 -74l-23 32l123 91l123 -91l-23 -32zM461 540h42v-540h-39v88c-10 -17 -22 -32 -36 -46c-36 -34 -85 -51 -133 -53c-47 -4 -97 6 -139 34c-82 56 -98 152 -96 254v263h42v-263c0 -97 9 -174 77 -220c33 -21 73 -30 114 -28c40 2 79 16 107 43
c29 26 47 64 54 104c5 22 7 44 7 67v297z" />
    <glyph glyph-name="udieresis" unicode="&#xfc;" 
d="M221 720v-60h-60v60h60zM401 720v-60h-60v60h60zM461 540h42v-540h-39v88c-10 -17 -22 -32 -36 -46c-36 -34 -85 -51 -133 -53c-47 -4 -97 6 -139 34c-82 56 -98 152 -96 254v263h42v-263c0 -97 9 -174 77 -220c33 -21 73 -30 114 -28c40 2 79 16 107 43
c29 26 47 64 54 104c5 22 7 44 7 67v297z" />
    <glyph glyph-name="ugrave" unicode="&#xf9;" 
d="M395 641l-17 -35l-200 93l17 35zM461 540h42v-540h-39v88c-10 -17 -22 -32 -36 -46c-36 -34 -85 -51 -133 -53c-47 -4 -97 6 -139 34c-82 56 -98 152 -96 254v263h42v-263c0 -97 9 -174 77 -220c33 -21 73 -30 114 -28c40 2 79 16 107 43c29 26 47 64 54 104
c5 22 7 44 7 67v297z" />
    <glyph glyph-name="uhungarumlaut" unicode="&#x171;" 
d="M299 706l-95 -93l-27 28l95 93zM434 706l-95 -93l-27 28l95 93zM461 540h42v-540h-39v88c-10 -17 -22 -32 -36 -46c-36 -34 -85 -51 -133 -53c-47 -4 -97 6 -139 34c-82 56 -98 152 -96 254v263h42v-263c0 -97 9 -174 77 -220c33 -21 73 -30 114 -28c40 2 79 16 107 43
c29 26 47 64 54 104c5 22 7 44 7 67v297z" />
    <glyph glyph-name="umacron" unicode="&#x16b;" 
d="M401 702v-42h-240v42h240zM461 540h42v-540h-39v88c-10 -17 -22 -32 -36 -46c-36 -34 -85 -51 -133 -53c-47 -4 -97 6 -139 34c-82 56 -98 152 -96 254v263h42v-263c0 -97 9 -174 77 -220c33 -21 73 -30 114 -28c40 2 79 16 107 43c29 26 47 64 54 104c5 22 7 44 7 67
v297z" />
    <glyph glyph-name="uogonek" unicode="&#x173;" 
d="M489 -172l26 -29c-12 -12 -27 -23 -45 -31c-36 -15 -75 -7 -96 17c-24 24 -29 56 -19 92c16 56 61 110 109 150v61c-10 -17 -22 -32 -36 -46c-36 -34 -85 -51 -133 -53c-47 -4 -97 6 -139 34c-82 56 -98 152 -96 254v263h42v-263c0 -97 9 -174 77 -220
c33 -21 73 -30 114 -28c40 2 79 16 107 43c29 26 47 64 54 104c5 22 7 44 7 67v297h42v-540h-10c-22 -17 -42 -38 -59 -60c-17 -23 -32 -48 -39 -74c-6 -19 -5 -38 8 -51c27 -27 62 -9 86 13z" />
    <glyph glyph-name="uring" unicode="&#x16f;" 
d="M280 613c-54 0 -99 44 -99 99c0 54 45 99 99 99c55 0 99 -45 99 -99c0 -55 -44 -99 -99 -99zM280 772c-33 0 -60 -27 -60 -60s27 -60 60 -60c34 0 60 27 60 60s-26 60 -60 60zM461 540h42v-540h-39v88c-10 -17 -22 -32 -36 -46c-36 -34 -85 -51 -133 -53
c-47 -4 -97 6 -139 34c-82 56 -98 152 -96 254v263h42v-263c0 -97 9 -174 77 -220c33 -21 73 -30 114 -28c40 2 79 16 107 43c29 26 47 64 54 104c5 22 7 44 7 67v297z" />
    <glyph glyph-name="v" unicode="v" horiz-adv-x="478" 
d="M413 540h45l-196 -540h-46l-196 540h44l175 -479z" />
    <glyph glyph-name="w" unicode="w" horiz-adv-x="744" 
d="M681 540h43l-165 -540h-44l-143 469l-143 -469h-44l-165 540h44l143 -468l143 468h44l143 -468z" />
    <glyph glyph-name="wacute" unicode="&#x1e83;" horiz-adv-x="744" 
d="M266 606l200 93l-17 35l-200 -93zM681 540h43l-165 -540h-44l-143 469l-143 -469h-44l-165 540h44l143 -468l143 468h44l143 -468z" />
    <glyph glyph-name="wcircumflex" unicode="&#x175;" horiz-adv-x="744" 
d="M272 606l100 74l100 -74l23 32l-123 91l-123 -91zM681 540h43l-165 -540h-44l-143 469l-143 -469h-44l-165 540h44l143 -468l143 468h44l143 -468z" />
    <glyph glyph-name="wdieresis" unicode="&#x1e85;" horiz-adv-x="744" 
d="M252 720h60v-60h-60v60zM432 720h60v-60h-60v60zM681 540h43l-165 -540h-44l-143 469l-143 -469h-44l-165 540h44l143 -468l143 468h44l143 -468z" />
    <glyph glyph-name="wgrave" unicode="&#x1e81;" horiz-adv-x="744" 
d="M444 606l17 35l-200 93l-17 -35zM681 540h43l-165 -540h-44l-143 469l-143 -469h-44l-165 540h44l143 -468l143 468h44l143 -468z" />
    <glyph glyph-name="x" unicode="x" horiz-adv-x="509" 
d="M494 540l-215 -267l220 -273h-53l-191 242l-192 -242h-53l220 273l-215 267h52l188 -236l187 236h52z" />
    <glyph glyph-name="y" unicode="y" horiz-adv-x="506" 
d="M436 540h45l-283 -780h-47l89 240l-220 540h46l195 -482z" />
    <glyph glyph-name="yacute" unicode="&#xfd;" horiz-adv-x="506" 
d="M391 699l-200 -93l-17 35l200 93zM436 540h45l-283 -780h-47l89 240l-220 540h46l195 -482z" />
    <glyph glyph-name="ycircumflex" unicode="&#x177;" horiz-adv-x="506" 
d="M261 680l-100 -74l-23 32l123 91l123 -91l-23 -32zM436 540h45l-283 -780h-47l89 240l-220 540h46l195 -482z" />
    <glyph glyph-name="ydieresis" unicode="&#xff;" horiz-adv-x="506" 
d="M214 720v-60h-60v60h60zM394 720v-60h-60v60h60zM436 540h45l-283 -780h-47l89 240l-220 540h46l195 -482z" />
    <glyph glyph-name="ygrave" unicode="&#x1ef3;" horiz-adv-x="506" 
d="M392 641l-17 -35l-200 93l17 35zM436 540h45l-283 -780h-47l89 240l-220 540h46l195 -482z" />
    <glyph glyph-name="z" unicode="z" horiz-adv-x="527" 
d="M463 44v-44h-443v15l390 481h-366v44h443v-17l-390 -479h366z" />
    <glyph glyph-name="zacute" unicode="&#x17a;" horiz-adv-x="527" 
d="M213 606l200 93l-17 35l-200 -93zM463 44v-44h-443v15l390 481h-366v44h443v-17l-390 -479h366z" />
    <glyph glyph-name="zcaron" unicode="&#x17e;" horiz-adv-x="527" 
d="M176 729l-23 -32l123 -91l123 91l-23 32l-100 -74zM463 44v-44h-443v15l390 481h-366v44h443v-17l-390 -479h366z" />
    <glyph glyph-name="zdotaccent" unicode="&#x17c;" horiz-adv-x="527" 
d="M236 720h60v-60h-60v60zM463 44v-44h-443v15l390 481h-366v44h443v-17l-390 -479h366z" />
    <glyph glyph-name="f_i" horiz-adv-x="566" 
d="M160 701c24 25 56 34 99 34h70v-38h-65c-63 0 -94 -27 -94 -100v-57h159v-42h-159v-498h-42v498h-98v42h98v61c-1 42 7 73 32 100zM444 730h42v-64h-42v64zM444 0v540h42v-540h-42z" />
    <glyph glyph-name="uni0410" unicode="&#x410;" horiz-adv-x="609" 
d="M544 0l-68 187h-343l-68 -187h-45l262 720h45l262 -720h-45zM147 227h314l-157 432z" />
    <glyph glyph-name="uni0411" unicode="&#x411;" horiz-adv-x="581" 
d="M381 428c104 -16 170 -104 170 -212s-66 -196 -170 -212c-18 -3 -32 -4 -46 -4h-265v720h420v-42h-378v-246h223c14 0 28 -1 46 -4zM379 46c83 16 127 89 127 170s-44 154 -127 170c-16 3 -33 4 -44 4h-223v-348h223c11 0 28 1 44 4z" />
    <glyph glyph-name="uni0412" unicode="&#x412;" horiz-adv-x="601" 
d="M531 315c28 -35 43 -81 40 -125s-17 -91 -45 -122c-49 -53 -93 -68 -183 -68h-273v720h273c59 0 106 -21 145 -58c31 -30 48 -80 48 -122c0 -38 -13 -73 -35 -104c-15 -22 -34 -39 -57 -52c35 -15 65 -38 87 -69zM343 679h-231v-279h231c44 0 94 22 121 62
c18 26 27 57 27 88c0 34 -13 63 -36 86c-28 28 -68 43 -112 43zM487 94c27 26 39 59 39 96c0 35 -10 70 -30 98c-28 44 -88 71 -134 71h-250v-317h230c61 0 100 9 145 52z" />
    <glyph glyph-name="uni0413" unicode="&#x413;" horiz-adv-x="520" 
d="M510 720v-42h-398v-678h-42v720h440z" />
    <glyph glyph-name="uni0403" unicode="&#x403;" horiz-adv-x="520" 
d="M337 879l-200 -93l-17 35l200 93zM510 720v-42h-398v-678h-42v720h440z" />
    <glyph glyph-name="uni0490" unicode="&#x490;" horiz-adv-x="530" 
d="M478 800h42v-122h-408v-678h-42v720h408v80z" />
    <glyph glyph-name="uni0414" unicode="&#x414;" horiz-adv-x="728" 
d="M638 42h50v-122h-42v80h-564v-80h-42v122c54 69 87 143 111 262c28 139 35 252 42 416h445v-678zM596 42v636h-361c-6 -133 -18 -263 -45 -399c-24 -119 -58 -176 -93 -237h499z" />
    <glyph glyph-name="uni0415" unicode="&#x415;" horiz-adv-x="560" 
d="M510 678h-398v-297h338v-42h-338v-297h398v-42h-440v720h440v-42z" />
    <glyph glyph-name="uni0400" unicode="&#x400;" horiz-adv-x="560" 
d="M377 821l-17 -35l-200 93l17 35zM510 678h-398v-297h338v-42h-338v-297h398v-42h-440v720h440v-42z" />
    <glyph glyph-name="uni0401" unicode="&#x401;" horiz-adv-x="560" 
d="M215 900v-60h-60v60h60zM395 900v-60h-60v60h60zM510 678h-398v-297h338v-42h-338v-297h398v-42h-440v720h440v-42z" />
    <glyph glyph-name="uni0416" unicode="&#x416;" horiz-adv-x="892" 
d="M10 0l244 375l-133 255c-11 20 -26 35 -41 41s-29 9 -48 7l-3 42c26 3 53 3 82 -12c22 -12 35 -35 48 -58l131 -254h135v324h42v-324h135l131 254c12 23 26 46 48 58c29 16 56 15 82 12l-3 -42c-19 2 -33 -1 -48 -7s-30 -21 -41 -41l-133 -255l244 -375h-51l-230 354
h-134v-354h-42v354h-134l-230 -354h-51z" />
    <glyph glyph-name="uni0417" unicode="&#x417;" horiz-adv-x="614" 
d="M82 647c18 18 44 42 84 59c56 24 107 29 161 29s109 -11 155 -40c56 -35 76 -87 76 -146c0 -60 -27 -113 -76 -145c-12 -8 -24 -14 -37 -19c17 -6 35 -16 55 -30c50 -36 74 -84 74 -160c0 -66 -26 -124 -78 -162c-51 -37 -111 -48 -169 -48s-124 9 -177 40
c-46 27 -83 61 -110 119l38 18c19 -42 58 -82 96 -102c58 -30 104 -33 153 -33c54 0 107 13 145 42c39 29 58 78 57 127c-1 52 -16 92 -56 121c-41 29 -94 39 -146 43c-38 3 -75 4 -113 4v42c38 0 75 0 113 2c47 2 94 8 130 32c37 24 57 65 56 109c1 45 -20 86 -56 110
s-85 34 -130 34c-47 0 -97 -5 -140 -25c-34 -16 -55 -34 -74 -52z" />
    <glyph glyph-name="uni0418" unicode="&#x418;" horiz-adv-x="662" 
d="M550 720h42v-720h-42v646l-438 -646h-42v720h42v-645z" />
    <glyph glyph-name="uni0419" unicode="&#x419;" horiz-adv-x="662" 
d="M416 894h39c0 -63 -51 -114 -114 -114s-114 51 -114 114h39c0 -41 34 -75 75 -75c42 0 75 34 75 75zM550 720h42v-720h-42v646l-438 -646h-42v720h42v-645z" />
    <glyph glyph-name="uni040D" unicode="&#x40d;" horiz-adv-x="662" 
d="M418 786l17 35l-200 93l-17 -35zM550 720h42v-720h-42v646l-438 -646h-42v720h42v-645z" />
    <glyph glyph-name="uni041A" unicode="&#x41a;" horiz-adv-x="558" 
d="M70 720h42v-720h-42v720zM173 376l385 -376h-58l-388 376l356 344h58z" />
    <glyph glyph-name="uni040C" unicode="&#x40c;" horiz-adv-x="558" 
d="M432 879l-200 -93l-17 35l200 93zM70 720h42v-720h-42v720zM173 376l385 -376h-58l-388 376l356 344h58z" />
    <glyph glyph-name="uni041B" unicode="&#x41b;" horiz-adv-x="684" 
d="M614 720v-720h-42v678h-350c-9 -140 -17 -317 -41 -484c-18 -124 -36 -229 -161 -194v42c92 -13 93 36 116 179c23 146 35 332 42 499h436z" />
    <glyph glyph-name="uni041C" unicode="&#x41c;" horiz-adv-x="831" 
d="M761 720v-719h-42v618l-280 -619h-47l-280 619v-619h-42v720h40l306 -669l303 669h42z" />
    <glyph glyph-name="uni041D" unicode="&#x41d;" horiz-adv-x="660" 
d="M548 720h42v-720h-42v339h-436v-339h-42v720h42v-339h436v339z" />
    <glyph glyph-name="uni041E" unicode="&#x41e;" horiz-adv-x="726" 
d="M363 -15c-214 0 -321 156 -323 375s118 378 323 374c216 -4 321 -151 323 -374c2 -217 -111 -375 -323 -375zM363 27c188 2 276 136 278 333c2 195 -98 334 -278 332c-188 -2 -276 -134 -278 -332c-2 -196 96 -335 278 -333z" />
    <glyph glyph-name="uni041F" unicode="&#x41f;" horiz-adv-x="710" 
d="M640 720v-720h-42v678h-486v-678h-42v720h570z" />
    <glyph glyph-name="uni0420" unicode="&#x420;" horiz-adv-x="581" 
d="M381 716c104 -16 170 -104 170 -212s-66 -196 -170 -212c-18 -3 -32 -4 -46 -4h-223v-288h-42v720h265c14 0 28 -1 46 -4zM379 334c83 16 127 89 127 170s-44 154 -127 170c-16 3 -33 4 -44 4h-223v-348h223c11 0 28 1 44 4z" />
    <glyph glyph-name="uni0421" unicode="&#x421;" horiz-adv-x="712" 
d="M625 228l42 -12c-10 -42 -29 -82 -56 -118c-58 -77 -148 -113 -248 -113s-188 34 -247 113c-56 75 -78 178 -76 262c2 90 18 185 76 261c58 77 148 114 247 114s191 -39 248 -114c31 -40 50 -87 61 -135l-44 -7c-9 42 -27 82 -52 115c-52 69 -128 97 -213 98
c-82 1 -161 -31 -212 -97s-66 -151 -66 -235s10 -162 66 -236c50 -67 126 -96 212 -97c83 -1 164 33 213 98c22 31 39 66 49 103z" />
    <glyph glyph-name="uni0422" unicode="&#x422;" horiz-adv-x="590" 
d="M580 720v-42h-264v-678h-42v678h-264v42h570z" />
    <glyph glyph-name="uni0423" unicode="&#x423;" horiz-adv-x="614" 
d="M544 720h45l-332 -720h-48l72 155l-261 565h45l238 -518z" />
    <glyph glyph-name="uni040E" unicode="&#x40e;" horiz-adv-x="614" 
d="M370 894h39c0 -63 -51 -114 -114 -114s-114 51 -114 114h39c0 -41 34 -75 75 -75c42 0 75 34 75 75zM544 720h45l-332 -720h-48l72 155l-261 565h45l238 -518z" />
    <glyph glyph-name="uni0424" unicode="&#x424;" horiz-adv-x="752" 
d="M615 602c68 -53 100 -138 97 -219c3 -81 -29 -166 -97 -219c-63 -48 -136 -69 -218 -73v-91h-42v91c-80 4 -155 23 -218 73c-68 53 -100 138 -97 219c-3 81 29 166 97 219c62 47 134 67 218 73v45h42v-45c81 -6 154 -24 218 -73zM162 200c56 -44 120 -62 193 -66v499
c-69 -5 -140 -23 -193 -67c-57 -46 -77 -112 -77 -183s21 -137 77 -183zM590 200c56 46 77 112 77 183s-20 137 -77 183c-51 42 -121 62 -193 67v-499c71 4 136 21 193 66z" />
    <glyph glyph-name="uni0425" unicode="&#x425;" 
d="M310 365l253 -365h-50l-227 330l-226 -330h-50l253 365l-247 355h50l220 -321l221 321h50z" />
    <glyph glyph-name="uni0427" unicode="&#x427;" horiz-adv-x="627" 
d="M515 720h42v-720h-42v315c-42 -27 -101 -55 -194 -55c-74 0 -140 25 -186 79c-62 72 -65 140 -65 247v134h42v-134c0 -100 4 -155 56 -219c38 -47 97 -66 154 -66c102 0 157 29 193 60v359z" />
    <glyph glyph-name="uni0426" unicode="&#x426;" horiz-adv-x="694" 
d="M684 42v-122h-42v80h-572v720h42v-678h456v678h42v-678h74z" />
    <glyph glyph-name="uni0428" unicode="&#x428;" horiz-adv-x="880" 
d="M768 720h42v-720h-740v720h42v-678h307v678h42v-678h307v678z" />
    <glyph glyph-name="uni0429" unicode="&#x429;" horiz-adv-x="894" 
d="M810 42h74v-122h-42v80h-772v720h42v-678h307v678h42v-678h307v678h42v-678z" />
    <glyph glyph-name="uni040F" unicode="&#x40f;" horiz-adv-x="710" 
d="M598 720h42v-720h-264v-120h-42v120h-264v720h42v-678h486v678z" />
    <glyph glyph-name="uni042C" unicode="&#x42c;" horiz-adv-x="581" 
d="M381 428c104 -16 170 -104 170 -212s-66 -196 -170 -212c-18 -3 -32 -4 -46 -4h-265v720h42v-288h223c14 0 28 -1 46 -4zM379 46c83 16 127 89 127 170s-44 154 -127 170c-16 3 -33 4 -44 4h-223v-348h223c11 0 28 1 44 4z" />
    <glyph glyph-name="uni042A" unicode="&#x42a;" horiz-adv-x="591" 
d="M391 428c104 -16 170 -104 170 -212s-66 -196 -170 -212c-18 -3 -32 -4 -46 -4h-265v678h-90v42h140v-42h-8v-246h223c14 0 28 -1 46 -4zM389 46c83 16 127 89 127 170s-44 154 -127 170c-16 3 -33 4 -44 4h-223v-348h223c11 0 28 1 44 4z" />
    <glyph glyph-name="uni042B" unicode="&#x42b;" horiz-adv-x="733" 
d="M381 428c104 -16 170 -104 170 -212s-66 -196 -170 -212c-18 -3 -32 -4 -46 -4h-265v720h42v-288h223c14 0 28 -1 46 -4zM621 720h42v-720h-42v720zM379 46c83 16 127 89 127 170s-44 154 -127 170c-16 3 -33 4 -44 4h-223v-348h223c11 0 28 1 44 4z" />
    <glyph glyph-name="uni0409" unicode="&#x409;" horiz-adv-x="1073" 
d="M873 428c104 -16 170 -104 170 -212s-66 -196 -170 -212c-18 -3 -32 -4 -46 -4h-265v678h-350c-9 -140 -17 -317 -41 -484c-18 -124 -36 -229 -161 -194v42c92 -13 93 36 116 179c23 146 35 332 42 499h436v-288h223c14 0 28 -1 46 -4zM871 46c83 16 127 89 127 170
s-44 154 -127 170c-16 3 -33 4 -44 4h-223v-348h223c11 0 28 1 44 4z" />
    <glyph glyph-name="uni040A" unicode="&#x40a;" horiz-adv-x="1019" 
d="M819 428c104 -16 170 -104 170 -212s-66 -196 -170 -212c-18 -3 -32 -4 -46 -4h-265v390h-396v-390h-42v720h42v-288h396v288h42v-288h223c14 0 28 -1 46 -4zM817 46c83 16 127 89 127 170s-44 154 -127 170c-16 3 -33 4 -44 4h-223v-348h223c11 0 28 1 44 4z" />
    <glyph glyph-name="uni0405" unicode="&#x405;" horiz-adv-x="589" 
d="M556 525l-42 -8c-11 73 -48 117 -98 145c-34 19 -84 31 -127 31c-41 0 -83 -9 -116 -30c-34 -22 -70 -59 -70 -118c0 -22 8 -56 32 -77c30 -26 66 -39 112 -53l131 -39c47 -14 99 -32 135 -67c34 -34 46 -71 46 -118c0 -67 -28 -124 -77 -158s-104 -48 -177 -48
s-157 21 -217 83c-31 33 -50 73 -58 111l42 8c9 -34 25 -68 59 -98c45 -40 101 -62 175 -62c54 0 111 12 149 40c39 28 63 67 63 124c0 30 -10 63 -33 86c-30 31 -73 43 -119 57l-131 39c-44 13 -90 24 -129 60c-33 30 -48 68 -48 109c0 69 37 126 93 159
c41 24 92 34 137 34c52 0 116 -13 157 -39c52 -33 98 -83 111 -171z" />
    <glyph glyph-name="uni0404" unicode="&#x404;" horiz-adv-x="712" 
d="M576 125c22 31 39 66 49 103l42 -12c-10 -42 -29 -82 -56 -118c-58 -77 -148 -113 -248 -113s-188 34 -247 113c-56 75 -78 178 -76 262c2 90 18 185 76 261c58 77 148 114 247 114s191 -39 248 -114c31 -40 50 -87 61 -135l-44 -7c-9 42 -27 82 -52 115
c-52 69 -128 97 -213 98c-82 1 -161 -31 -212 -97c-47 -61 -63 -137 -66 -214h270v-42h-270c2 -76 15 -147 66 -215c50 -67 126 -96 212 -97c83 -1 164 33 213 98z" />
    <glyph glyph-name="uni042D" unicode="&#x42d;" horiz-adv-x="712" 
d="M672 360c2 -84 -20 -187 -76 -262c-59 -79 -147 -113 -247 -113s-190 36 -248 113c-27 36 -46 76 -56 118l42 12c10 -37 27 -72 49 -103c49 -65 130 -99 213 -98c86 1 162 30 212 97c51 68 64 139 66 215h-270v42h270c-3 77 -19 153 -66 214c-51 66 -130 98 -212 97
c-85 -1 -161 -29 -213 -98c-25 -33 -43 -73 -52 -115l-44 7c11 48 30 95 61 135c57 75 149 114 248 114s189 -37 247 -114c58 -76 74 -171 76 -261z" />
    <glyph glyph-name="uni0406" unicode="&#x406;" horiz-adv-x="202" 
d="M80 720h42v-720h-42v720z" />
    <glyph glyph-name="uni0407" unicode="&#x407;" horiz-adv-x="202" 
d="M-19 900h60v-60h-60v60zM161 900h60v-60h-60v60zM80 720h42v-720h-42v720z" />
    <glyph glyph-name="uni0408" unicode="&#x408;" horiz-adv-x="439" 
d="M358 720h-42v-508c0 -54 0 -85 -18 -119c-24 -45 -71 -65 -121 -65c-67 0 -121 50 -134 107l-43 -10c20 -84 92 -139 179 -139c66 0 124 29 156 85c25 44 23 86 23 141v508z" />
    <glyph glyph-name="uni040B" unicode="&#x40b;" horiz-adv-x="627" 
d="M492 381c62 -72 65 -140 65 -247v-134h-42v134c0 100 -4 155 -56 219c-38 47 -97 66 -154 66c-102 0 -157 -29 -193 -60v-359h-42v678h-70v42h270v-42h-158v-273c42 27 101 55 194 55c74 0 140 -25 186 -79z" />
    <glyph glyph-name="uni042E" unicode="&#x42e;" horiz-adv-x="1006" 
d="M966 360c2 -217 -111 -375 -323 -375c-207 0 -314 146 -322 354h-209v-339h-42v720h42v-339h208c6 208 125 357 323 353c216 -4 321 -151 323 -374zM921 360c2 195 -98 334 -278 332c-188 -2 -276 -134 -278 -332c-2 -196 96 -335 278 -333c188 2 276 136 278 333z" />
    <glyph glyph-name="uni042F" unicode="&#x42f;" horiz-adv-x="591" 
d="M521 720v-720h-42v288h-223c-14 0 -27 1 -45 4l-141 -292h-50l148 303c-80 31 -128 108 -128 201c0 108 66 196 170 212c18 3 32 4 46 4h265zM479 330v348h-223c-11 0 -28 -1 -44 -4c-83 -16 -127 -89 -127 -170s44 -154 127 -170c16 -3 33 -4 44 -4h223z" />
    <glyph glyph-name="uni0402" unicode="&#x402;" horiz-adv-x="626" 
d="M327 555c166 0 259 -89 259 -264c0 -177 -79 -291 -243 -291v42c126 0 201 89 201 249c0 154 -72 222 -215 222c-102 0 -179 -39 -204 -133c-13 -47 -13 -93 -13 -141v-239h-42v678h-70v42h270v-42h-161v-229c41 73 122 106 218 106z" />
    <glyph glyph-name="uni04AE" unicode="&#x4ae;" horiz-adv-x="519" 
d="M471 720h48l-238 -414v-306h-42v306l-239 414h48l212 -366z" />
    <glyph glyph-name="uni04BA" unicode="&#x4ba;" horiz-adv-x="627" 
d="M112 0h-42v720h42v-315c42 27 101 55 194 55c74 0 140 -25 186 -79c62 -72 65 -140 65 -247v-134h-42v134c0 100 -4 155 -56 219c-38 47 -97 66 -154 66c-102 0 -157 -29 -193 -60v-359z" />
    <glyph glyph-name="uni04E8" unicode="&#x4e8;" horiz-adv-x="726" 
d="M686 360c2 -217 -111 -375 -323 -375c-214 0 -321 156 -323 375s118 378 323 374c216 -4 321 -151 323 -374zM363 692c-181 -2 -270 -125 -277 -311h555c-5 184 -105 313 -278 311zM363 27c181 2 270 127 277 312h-555c5 -185 103 -314 278 -312z" />
    <glyph glyph-name="uni0414.loclBGR" horiz-adv-x="706" 
d="M623 42h53v-122h-42v80h-562v-80h-42v122h54l247 678h45zM129 42h449l-225 617z" />
    <glyph glyph-name="uni0416.loclBGR" horiz-adv-x="892" 
d="M10 0l244 375l-133 255c-11 20 -26 35 -41 41s-29 9 -48 7l-3 42c26 3 53 3 82 -12c22 -12 35 -35 48 -58l131 -254h135v324h42v-324h135l131 254c12 23 26 46 48 58c29 16 56 15 82 12l-3 -42c-19 2 -33 -1 -48 -7s-30 -21 -41 -41l-133 -255l244 -375h-51l-230 354
h-134v-354h-42v354h-134l-230 -354h-51z" />
    <glyph glyph-name="uni041A.loclBGR" horiz-adv-x="558" 
d="M70 720h42v-720h-42v720zM173 376l385 -376h-58l-388 376l356 344h58z" />
    <glyph glyph-name="uni041B.loclBGR" horiz-adv-x="579" 
d="M267 720h45l262 -720h-45l-240 659l-239 -659h-45z" />
    <glyph glyph-name="uni0430" unicode="&#x430;" horiz-adv-x="542" 
d="M482 0h-39v98c-45 -80 -129 -113 -226 -113c-100 0 -177 61 -177 161c0 67 38 125 136 148c78 18 162 25 264 38c0 116 -54 181 -160 181c-89 0 -153 -31 -175 -116l-44 14c22 99 107 144 222 144c100 0 166 -51 190 -138c7 -26 9 -51 9 -79v-338zM416 134
c23 47 24 117 24 157c-96 -10 -176 -14 -250 -35c-65 -18 -106 -54 -106 -110c0 -76 56 -119 134 -119c91 0 162 34 198 107z" />
    <glyph glyph-name="uni0431" unicode="&#x431;" 
d="M286 519c67 2 139 -22 185 -76c47 -54 61 -125 62 -191c-1 -65 -15 -136 -62 -190c-46 -54 -118 -78 -185 -77c-66 -1 -139 23 -185 77c-44 51 -61 121 -61 190c0 121 2 165 10 216c12 81 42 146 106 194c66 50 150 58 227 58c38 0 74 -4 111 -9v-40
c-38 6 -75 10 -111 10c-72 0 -146 -12 -202 -52c-57 -40 -81 -112 -92 -202c50 63 113 95 197 92zM286 477c-58 1 -116 -20 -152 -63c-36 -42 -49 -100 -49 -159c0 -63 14 -124 49 -164c36 -44 94 -64 152 -64c59 0 116 20 152 63c37 43 50 103 50 162s-13 120 -50 162
c-36 43 -93 64 -152 63z" />
    <glyph glyph-name="uni0432" unicode="&#x432;" horiz-adv-x="520" 
d="M70 540h207c16 0 52 -1 85 -9c66 -16 102 -78 102 -136c0 -37 -8 -64 -29 -92c-9 -12 -22 -22 -33 -28c9 -2 21 -8 33 -16c38 -25 55 -68 55 -113c0 -76 -38 -123 -94 -138c-29 -8 -60 -8 -84 -8h-242v540zM112 498v-207h185c15 0 41 2 59 8c43 14 63 53 63 96
c0 41 -22 79 -64 93c-24 8 -50 10 -73 10h-170zM112 249v-207h200c14 0 42 2 61 6c50 11 72 50 72 98c0 53 -38 94 -99 101c-17 2 -34 2 -50 2h-184z" />
    <glyph glyph-name="uni0433" unicode="&#x433;" horiz-adv-x="455" 
d="M430 540v-42h-318v-498h-42v540h360z" />
    <glyph glyph-name="uni0453" unicode="&#x453;" horiz-adv-x="455" 
d="M107 606l200 93l-17 35l-200 -93zM430 540v-42h-318v-498h-42v540h360z" />
    <glyph glyph-name="uni0491" unicode="&#x491;" horiz-adv-x="455" 
d="M388 620h42v-122h-318v-498h-42v540h318v80z" />
    <glyph glyph-name="uni0434" unicode="&#x434;" horiz-adv-x="565" 
d="M485 540v-498h50v-122h-42v80h-421v-80h-42v122c24 9 53 38 83 119c29 78 41 217 48 379h324zM443 42v456h-240c-5 -116 -23 -284 -52 -364c-14 -38 -27 -66 -50 -92h342z" />
    <glyph glyph-name="uni0435" unicode="&#x435;" 
d="M287 27c90 0 158 41 198 122l35 -20c-44 -94 -127 -144 -233 -144c-159 0 -247 118 -247 285c0 170 89 285 247 285c167 0 246 -120 246 -297h-448c4 -140 73 -231 202 -231zM287 513c-125 2 -192 -86 -201 -213h400c-11 132 -76 215 -199 213z" />
    <glyph glyph-name="uni0450" unicode="&#x450;" 
d="M415 641l-17 -35l-200 93l17 35zM287 27c90 0 158 41 198 122l35 -20c-44 -94 -127 -144 -233 -144c-159 0 -247 118 -247 285c0 170 89 285 247 285c167 0 246 -120 246 -297h-448c4 -140 73 -231 202 -231zM287 513c-125 2 -192 -86 -201 -213h400
c-11 132 -76 215 -199 213z" />
    <glyph glyph-name="uni0451" unicode="&#x451;" 
d="M227 720v-60h-60v60h60zM407 720v-60h-60v60h60zM287 27c90 0 158 41 198 122l35 -20c-44 -94 -127 -144 -233 -144c-159 0 -247 118 -247 285c0 170 89 285 247 285c167 0 246 -120 246 -297h-448c4 -140 73 -231 202 -231zM287 513c-125 2 -192 -86 -201 -213h400
c-11 132 -76 215 -199 213z" />
    <glyph glyph-name="uni0436" unicode="&#x436;" horiz-adv-x="652" 
d="M10 0l176 270l-91 175c-12 22 -18 34 -29 42s-23 12 -45 11v42c28 6 53 1 73 -17c18 -17 24 -33 38 -59l90 -173h83v249h42v-249h83l90 173c14 26 20 42 38 59c20 18 45 23 73 17v-42c-22 1 -34 -3 -45 -11s-17 -20 -29 -42l-91 -175l176 -270l-49 1l-161 248h-85v-249
h-42v249h-85l-161 -248z" />
    <glyph glyph-name="uni0437" unicode="&#x437;" horiz-adv-x="497" 
d="M55 461c18 23 43 46 77 64s74 30 129 30c46 0 78 -5 115 -28c48 -30 69 -74 69 -124c0 -57 -26 -97 -68 -122c56 -21 80 -82 80 -132c0 -56 -29 -108 -79 -136c-42 -24 -68 -28 -117 -28c-59 0 -107 16 -150 45c-44 29 -69 76 -81 99l35 20c12 -23 34 -61 70 -85
c27 -18 70 -37 126 -37c43 0 71 7 100 26c36 23 53 58 53 98s-15 72 -47 90c-22 12 -67 18 -110 18h-70v41h70c40 0 70 3 97 19c22 13 48 40 48 80c0 37 -12 69 -48 91c-26 16 -52 23 -93 23c-46 0 -76 -10 -110 -28c-26 -14 -45 -29 -63 -52z" />
    <glyph glyph-name="uni0438" unicode="&#x438;" horiz-adv-x="543" 
d="M473 540v-540h-42v466l-322 -466h-39v540h42v-466l322 466h39z" />
    <glyph glyph-name="uni0439" unicode="&#x439;" horiz-adv-x="543" 
d="M352 714h39c0 -63 -51 -114 -114 -114s-114 51 -114 114h39c0 -41 34 -75 75 -75c42 0 75 34 75 75zM473 540v-540h-42v466l-322 -466h-39v540h42v-466l322 466h39z" />
    <glyph glyph-name="uni045D" unicode="&#x45d;" horiz-adv-x="543" 
d="M379 606l17 35l-200 93l-17 -35zM473 540v-540h-42v466l-322 -466h-39v540h42v-466l322 466h39z" />
    <glyph glyph-name="uni043A" unicode="&#x43a;" horiz-adv-x="468" 
d="M70 0v540h42v-260l270 260h63l-282 -270l325 -270h-72l-304 260v-260h-42z" />
    <glyph glyph-name="uni045C" unicode="&#x45c;" horiz-adv-x="468" 
d="M130 606l200 93l-17 35l-200 -93zM70 0v540h42v-260l270 260h63l-282 -270l325 -270h-72l-304 260v-260h-42z" />
    <glyph glyph-name="uni043B" unicode="&#x43b;" horiz-adv-x="556" 
d="M139 540h347v-540h-42v498h-262c-12 -177 -27 -328 -44 -412c-14 -70 -30 -101 -118 -86v40c61 -11 70 24 80 82c17 103 27 224 39 418z" />
    <glyph glyph-name="uni043C" unicode="&#x43c;" horiz-adv-x="670" 
d="M557 540h43v-540h-42v440l-200 -440h-46l-200 440v-440h-42v540h43l222 -488z" />
    <glyph glyph-name="uni043D" unicode="&#x43d;" horiz-adv-x="570" 
d="M458 540h42v-540h-42v249h-346v-249h-42v540h42v-249h346v249z" />
    <glyph glyph-name="uni043E" unicode="&#x43e;" horiz-adv-x="574" 
d="M287 -15c-160 0 -247 118 -247 286c0 170 90 284 247 284c161 0 247 -117 247 -284c0 -171 -88 -286 -247 -286zM489 271c0 147 -67 242 -202 242c-137 0 -202 -100 -202 -242c0 -147 69 -244 202 -244c136 0 202 99 202 244z" />
    <glyph glyph-name="uni043F" unicode="&#x43f;" horiz-adv-x="543" 
d="M473 540v-540h-42v498h-319v-498h-42v540h403z" />
    <glyph glyph-name="uni0440" unicode="&#x440;" horiz-adv-x="576" 
d="M309 555c145 0 227 -125 227 -284c0 -162 -82 -286 -235 -286c-88 0 -152 47 -189 121v-346h-42v780h39v-110c37 77 104 125 200 125zM301 27c125 0 190 105 190 244c0 138 -61 242 -190 242c-126 0 -192 -101 -192 -242c0 -139 65 -244 192 -244z" />
    <glyph glyph-name="uni0441" unicode="&#x441;" horiz-adv-x="539" 
d="M504 421l-40 -17c-30 69 -96 109 -177 109c-136 0 -200 -99 -202 -243c2 -147 69 -243 202 -243c79 0 143 37 176 108l41 -18c-45 -87 -119 -132 -217 -132c-161 0 -244 116 -247 285c3 173 87 285 247 285c100 0 184 -51 217 -134z" />
    <glyph glyph-name="uni0442" unicode="&#x442;" horiz-adv-x="490" 
d="M465 540v-42h-199v-498h-42v498h-199v42h440z" />
    <glyph glyph-name="uni0443" unicode="&#x443;" horiz-adv-x="506" 
d="M436 540h45l-283 -780h-47l89 240l-220 540h46l195 -482z" />
    <glyph glyph-name="uni045E" unicode="&#x45e;" horiz-adv-x="506" 
d="M280 600c-63 0 -114 51 -114 114h39c0 -41 34 -75 75 -75c42 0 75 34 75 75h39c0 -63 -51 -114 -114 -114zM436 540h45l-283 -780h-47l89 240l-220 540h46l195 -482z" />
    <glyph glyph-name="uni0444" unicode="&#x444;" horiz-adv-x="718" 
d="M380 555c173 0 298 -99 298 -286s-125 -284 -298 -284v-210h-42v210c-172 0 -298 97 -298 284s126 286 298 286v164h42v-164zM85 269c0 -165 107 -245 253 -245v489c-146 0 -253 -79 -253 -244zM380 24c143 0 253 80 253 245s-110 244 -253 244v-489z" />
    <glyph glyph-name="uni0445" unicode="&#x445;" horiz-adv-x="509" 
d="M494 540l-215 -267l220 -273h-53l-191 242l-192 -242h-53l220 273l-215 267h52l188 -236l187 236h52z" />
    <glyph glyph-name="uni0447" unicode="&#x447;" horiz-adv-x="543" 
d="M431 540h42v-540h-42v262c-48 -46 -116 -83 -202 -83c-93 0 -160 53 -180 138c-8 36 -9 73 -9 112v111h42v-111c0 -27 1 -52 4 -76c12 -84 59 -132 148 -132c82 0 164 49 197 100v219z" />
    <glyph glyph-name="uni0446" unicode="&#x446;" horiz-adv-x="594" 
d="M473 42h111v-122h-42v80h-472v540h42v-498h319v498h42v-498z" />
    <glyph glyph-name="uni0448" unicode="&#x448;" horiz-adv-x="737" 
d="M70 0v540h42v-498h236v498h42v-498h235v498h42v-540h-597z" />
    <glyph glyph-name="uni0449" unicode="&#x449;" horiz-adv-x="761" 
d="M667 42h84v-122h-42v80h-639v540h42v-498h236v498h42v-498h235v498h42v-498z" />
    <glyph glyph-name="uni045F" unicode="&#x45f;" horiz-adv-x="543" 
d="M431 540h42v-540h-167v-120h-42v120h-194v540h42v-498h319v498z" />
    <glyph glyph-name="uni044C" unicode="&#x44c;" horiz-adv-x="512" 
d="M70 540h43v-219h146c32 0 56 -1 79 -5c72 -12 134 -53 134 -155c0 -91 -55 -141 -117 -154c-28 -6 -55 -7 -86 -7h-198zM113 279v-237h144c27 0 66 0 91 7c39 11 79 37 79 112c0 72 -33 101 -88 112c-25 5 -55 6 -82 6h-144z" />
    <glyph glyph-name="uni044A" unicode="&#x44a;" horiz-adv-x="532" 
d="M358 316c72 -12 134 -53 134 -155c0 -91 -55 -141 -117 -154c-28 -6 -55 -7 -86 -7h-198l-1 498h-70v42h113v-219h146c32 0 56 -1 79 -5zM368 49c39 11 79 37 79 112c0 72 -33 101 -88 112c-25 5 -55 6 -82 6h-144v-237h144c27 0 66 0 91 7z" />
    <glyph glyph-name="uni044B" unicode="&#x44b;" horiz-adv-x="624" 
d="M70 540h43v-219h116c32 0 56 -1 79 -5c72 -13 134 -53 134 -155c0 -91 -55 -141 -117 -154c-28 -6 -55 -7 -86 -7h-168zM512 540v-540h42v540h-42zM113 279v-237h114c27 0 66 0 91 7c39 11 79 37 79 112c0 72 -33 101 -88 112c-25 5 -55 6 -82 6h-114z" />
    <glyph glyph-name="uni0459" unicode="&#x459;" horiz-adv-x="825" 
d="M651 316c72 -13 134 -53 134 -155c0 -91 -55 -141 -117 -154c-28 -6 -55 -7 -86 -7h-168l-1 498h-231c-12 -177 -27 -328 -44 -412c-14 -70 -30 -101 -118 -86v40c61 -11 70 24 80 82c18 103 27 224 39 418h317v-219h116c32 0 56 -1 79 -5zM661 49c39 11 79 37 79 112
c0 72 -33 101 -88 112c-25 5 -55 6 -82 6h-114v-237h114c27 0 66 0 91 7z" />
    <glyph glyph-name="uni045A" unicode="&#x45a;" horiz-adv-x="784" 
d="M610 316c72 -13 134 -53 134 -155c0 -91 -55 -141 -117 -154c-28 -6 -55 -7 -86 -7h-168l-1 279h-260v-279h-42v540h42v-219h260v219h43v-219h116c32 0 56 -1 79 -5zM620 49c39 11 79 37 79 112c0 72 -33 101 -88 112c-25 5 -55 6 -82 6h-114v-237h114c27 0 66 0 91 7z
" />
    <glyph glyph-name="uni0455" unicode="&#x455;" horiz-adv-x="514" 
d="M474 399l-43 -8c-16 91 -95 120 -178 122c-90 2 -153 -42 -153 -103c0 -44 36 -72 102 -90c26 -8 63 -17 116 -31c88 -23 155 -59 155 -143c0 -107 -85 -160 -205 -160c-107 0 -206 42 -228 144l43 8c21 -80 106 -110 189 -110c86 0 156 41 156 114c0 71 -57 88 -127 107
l-99 28c-78 22 -146 53 -146 133c0 96 97 145 198 145c125 0 211 -67 220 -156z" />
    <glyph glyph-name="uni0454" unicode="&#x454;" horiz-adv-x="539" 
d="M287 27c79 0 143 37 176 108l41 -18c-45 -87 -119 -132 -217 -132c-161 0 -244 116 -247 285c3 173 87 285 247 285c100 0 184 -51 217 -134l-40 -17c-30 69 -96 109 -177 109c-129 0 -194 -89 -201 -222h283v-42h-283c8 -135 74 -222 201 -222z" />
    <glyph glyph-name="uni044D" unicode="&#x44d;" horiz-adv-x="539" 
d="M252 555c160 0 244 -112 247 -285c-3 -169 -86 -285 -247 -285c-98 0 -172 45 -217 132l41 18c33 -71 97 -108 176 -108c127 0 193 87 201 222h-283v42h283c-7 133 -72 222 -201 222c-81 0 -147 -40 -177 -109l-40 17c33 83 117 134 217 134z" />
    <glyph glyph-name="uni0456" unicode="&#x456;" horiz-adv-x="202" 
d="M80 730h42v-64h-42v64zM80 540v-540h42v540h-42z" />
    <glyph glyph-name="uni0457" unicode="&#x457;" horiz-adv-x="202" 
d="M-19 720h60v-60h-60v60zM161 720h60v-60h-60v60zM80 540v-540h42v540h-42z" />
    <glyph glyph-name="uni0458" unicode="&#x458;" horiz-adv-x="225" 
d="M103 710h42v-64h-42v64zM24 -197h-34v-43h33c27 0 67 4 93 30c33 34 29 82 29 150v600h-42v-600c0 -66 1 -92 -17 -112s-39 -25 -62 -25z" />
    <glyph glyph-name="uni045B" unicode="&#x45b;" 
d="M417 517c82 -56 98 -152 96 -254v-263h-42v263c0 97 -9 174 -77 220c-33 21 -73 30 -114 28c-40 -2 -79 -16 -107 -43c-29 -26 -47 -64 -54 -104c-5 -22 -7 -45 -7 -69v-295h-42v600h-70v42h70v78h39v-78h131v-42h-131v-148c10 17 22 32 36 46c36 34 85 51 133 53
c47 4 97 -6 139 -34z" />
    <glyph glyph-name="uni044E" unicode="&#x44e;" horiz-adv-x="751" 
d="M653 469c45 -58 58 -131 58 -198c0 -69 -13 -141 -58 -199c-45 -60 -112 -87 -189 -87c-153 0 -239 108 -246 264h-106v-249h-42v540h42v-249h105c7 159 96 264 247 264c75 0 145 -28 189 -86zM619 98c36 47 47 110 47 173c0 61 -11 125 -47 172c-35 47 -94 70 -155 70
c-137 0 -202 -100 -202 -242c0 -147 69 -244 202 -244c61 0 120 24 155 71z" />
    <glyph glyph-name="uni044F" unicode="&#x44f;" horiz-adv-x="532" 
d="M462 0h-43v219h-146c-10 0 -20 0 -30 1l-153 -220h-50l156 226c-2 0 -4 1 -5 1c-72 13 -131 63 -131 152c0 84 56 136 117 153c24 7 55 8 86 8h198zM275 261h144v237h-144c-27 0 -65 -1 -90 -9c-37 -12 -80 -43 -80 -110c0 -64 34 -96 89 -111c22 -6 54 -7 81 -7z" />
    <glyph glyph-name="uni0452" unicode="&#x452;" 
d="M417 517c82 -56 98 -152 96 -254v-358c0 -57 -22 -77 -52 -83c-28 -3 -45 -1 -65 4v41c65 -10 75 7 75 78v318c0 97 -9 174 -77 220c-33 21 -73 30 -114 28c-40 -2 -79 -16 -107 -43c-29 -26 -47 -64 -54 -104c-5 -22 -7 -45 -7 -69v-295h-42v600h-70v42h70v78h39v-78
h131v-42h-131v-148c10 17 22 32 36 46c36 34 85 51 133 53c47 4 97 -6 139 -34z" />
    <glyph glyph-name="uni04AF" unicode="&#x4af;" horiz-adv-x="478" 
d="M414 540h44l-196 -540v-180h-46v180l-196 540h45l174 -479z" />
    <glyph glyph-name="uni04BB" unicode="&#x4bb;" horiz-adv-x="543" 
d="M494 223c8 -36 9 -73 9 -112v-111h-42v111c0 27 -1 52 -4 76c-12 84 -59 132 -148 132c-82 0 -164 -49 -197 -100v-219h-42v540h42v-262c48 46 116 83 202 83c93 0 160 -53 180 -138z" />
    <glyph glyph-name="uni04E9" unicode="&#x4e9;" horiz-adv-x="574" 
d="M287 555c161 0 247 -117 247 -284c0 -171 -88 -286 -247 -286c-160 0 -247 118 -247 286c0 170 90 284 247 284zM287 513c-130 0 -196 -91 -202 -222h404c-6 136 -73 222 -202 222zM287 27c129 0 195 89 201 222h-402c6 -135 75 -222 201 -222z" />
    <glyph glyph-name="uni0432.loclBGR" horiz-adv-x="545" 
d="M260 735c114 0 189 -64 189 -186c0 -77 -37 -140 -104 -157c60 -3 170 -65 170 -191c0 -129 -78 -216 -224 -216c-114 0 -191 57 -213 142c-5 21 -8 48 -8 77v328c0 37 5 71 15 96c28 69 85 107 175 107zM261 693c-62 0 -117 -28 -135 -87c-8 -26 -10 -56 -10 -85v-317
c0 -29 3 -54 8 -72c19 -62 89 -104 167 -104c106 0 179 64 179 173c0 97 -84 160 -210 163v42c73 9 144 51 144 144c0 90 -54 143 -143 143z" />
    <glyph glyph-name="uni0433.loclBGR" horiz-adv-x="514" 
d="M40 399c9 89 95 156 220 156c101 0 198 -49 198 -145c0 -80 -68 -111 -146 -133l-99 -28c-70 -19 -127 -36 -127 -107c0 -73 70 -114 156 -114c83 0 168 30 189 110l43 -8c-22 -102 -121 -144 -228 -144c-120 0 -205 53 -205 160c0 84 67 120 155 143c53 14 90 23 116 31
c66 18 102 46 102 90c0 61 -63 105 -153 103c-83 -2 -162 -31 -178 -122z" />
    <glyph glyph-name="uni0434.loclBGR" horiz-adv-x="576" 
d="M467 540h39v-510c0 -33 -1 -63 -5 -93c-16 -131 -86 -192 -225 -192c-78 0 -163 29 -212 120l37 25c36 -74 108 -102 175 -102c145 0 187 82 187 242v74c-37 -73 -101 -119 -188 -119c-153 0 -235 124 -235 286c0 159 82 284 227 284c96 0 163 -48 200 -125v110zM275 27
c127 0 192 105 192 244c0 141 -66 242 -192 242c-129 0 -190 -104 -190 -242c0 -139 65 -244 190 -244z" />
    <glyph glyph-name="uni0436.loclBGR" horiz-adv-x="652" 
d="M466 270l176 -270l-49 1l-161 248h-85v-249h-42v249h-85l-161 -248l-49 -1l176 270l-91 175c-12 22 -18 34 -29 42s-23 12 -45 11v42c28 6 53 1 73 -17c18 -17 24 -33 38 -59l90 -173h83v249h1v180h42v-429h82l90 173c14 26 20 42 38 59c20 18 45 23 73 17v-42
c-22 1 -34 -3 -45 -11s-17 -20 -29 -42z" />
    <glyph glyph-name="uni0437.loclBGR" horiz-adv-x="614" 
d="M82 467c18 18 44 42 84 59c56 24 107 29 161 29s109 -11 155 -40c56 -35 76 -87 76 -146c0 -60 -27 -113 -76 -145c-12 -8 -24 -14 -37 -19c17 -6 35 -16 55 -30c50 -36 74 -84 74 -160c0 -66 -26 -124 -78 -162c-51 -37 -111 -48 -169 -48s-124 9 -177 40
c-46 27 -83 61 -110 119l38 18c19 -42 58 -82 96 -102c58 -30 104 -33 153 -33c54 0 107 13 145 42c39 29 58 78 57 127c-1 52 -16 92 -56 121c-41 29 -94 39 -146 43c-38 3 -75 4 -113 4v42c38 0 75 0 113 2c47 2 94 8 130 32c37 24 57 65 56 109c1 45 -20 86 -56 110
s-85 34 -130 34c-47 0 -97 -5 -140 -25c-34 -16 -55 -34 -74 -52z" />
    <glyph glyph-name="uni0438.loclBGR" 
d="M461 540h42v-540h-39v88c-10 -17 -22 -32 -36 -46c-36 -34 -85 -51 -133 -53c-47 -4 -97 6 -139 34c-82 56 -98 152 -96 254v263h42v-263c0 -97 9 -174 77 -220c33 -21 73 -30 114 -28c40 2 79 16 107 43c29 26 47 64 54 104c5 22 7 44 7 67v297z" />
    <glyph glyph-name="uni0439.loclBGR" 
d="M281 600c-63 0 -114 51 -114 114h39c0 -41 34 -75 75 -75c42 0 75 34 75 75h39c0 -63 -51 -114 -114 -114zM461 540h42v-540h-39v88c-10 -17 -22 -32 -36 -46c-36 -34 -85 -51 -133 -53c-47 -4 -97 6 -139 34c-82 56 -98 152 -96 254v263h42v-263c0 -97 9 -174 77 -220
c33 -21 73 -30 114 -28c40 2 79 16 107 43c29 26 47 64 54 104c5 22 7 44 7 67v297z" />
    <glyph glyph-name="uni045D.loclBGR" horiz-adv-x="543" 
d="M401 641l-17 -35l-200 93l17 35zM461 540h42v-540h-39v88c-10 -17 -22 -32 -36 -46c-36 -34 -85 -51 -133 -53c-47 -4 -97 6 -139 34c-82 56 -98 152 -96 254v263h42v-263c0 -97 9 -174 77 -220c33 -21 73 -30 114 -28c40 2 79 16 107 43c29 26 47 64 54 104
c5 22 7 44 7 67v297z" />
    <glyph glyph-name="uni043A.loclBGR" horiz-adv-x="468" 
d="M70 0v720h42v-440l270 260h63l-282 -270l325 -270h-72l-304 260v-260h-42z" />
    <glyph glyph-name="uni043B.loclBGR" horiz-adv-x="478" 
d="M413 0l-174 479l-175 -479h-44l196 540h46l196 -540h-45z" />
    <glyph glyph-name="uni043D.loclBGR" horiz-adv-x="570" 
d="M458 540h42v-540h-42v249h-346v-249h-42v540h42v-249h346v249z" />
    <glyph glyph-name="uni043F.loclBGR" 
d="M417 517c82 -56 98 -152 96 -254v-263h-42v263c0 97 -9 174 -77 220c-33 21 -73 30 -114 28c-40 -2 -79 -16 -107 -43c-29 -26 -47 -64 -54 -104c-5 -22 -7 -44 -7 -67v-297h-42v540h39v-88c10 17 22 32 36 46c36 34 85 51 133 53c47 4 97 -6 139 -34z" />
    <glyph glyph-name="uni0442.loclBGR" horiz-adv-x="810" 
d="M684 520c65 -50 66 -103 66 -186l-1 -334h-40l1 334c0 70 -1 112 -53 153c-23 19 -53 30 -83 30c-45 0 -86 -19 -113 -53c-26 -34 -30 -67 -30 -105v-25l-1 -334h-40l1 334c0 70 -1 112 -53 153c-23 19 -53 30 -83 30c-45 0 -86 -19 -113 -53c-26 -34 -30 -67 -30 -105
v-359h-42v540h39v-59l5 6c33 44 87 68 142 68c38 0 77 -11 109 -35c25 -19 40 -39 50 -60c5 9 11 19 18 27c33 44 87 68 142 68c38 0 77 -11 109 -35z" />
    <glyph glyph-name="uni0447.loclBGR" horiz-adv-x="543" 
d="M431 540h42v-540h-42v262c-48 -46 -116 -83 -202 -83c-93 0 -160 53 -180 138c-8 36 -9 73 -9 112v111h42v-111c0 -27 1 -52 4 -76c12 -84 59 -132 148 -132c82 0 164 49 197 100v219z" />
    <glyph glyph-name="uni0446.loclBGR" horiz-adv-x="586" 
d="M503 42h73v-122h-42v80h-70v88c-10 -17 -22 -32 -36 -46c-36 -34 -85 -51 -133 -53c-47 -4 -97 6 -139 34c-82 56 -98 152 -96 254v263h42v-263c0 -97 9 -174 77 -220c33 -21 73 -30 114 -28c40 2 79 16 107 43c29 26 47 64 54 104c5 22 7 44 7 67v297h42v-498z" />
    <glyph glyph-name="uni0448.loclBGR" horiz-adv-x="810" 
d="M698 540h42v-540h-39v59l-5 -6c-33 -44 -87 -68 -142 -68c-38 0 -77 11 -109 35c-25 19 -40 39 -50 60c-5 -9 -11 -19 -18 -27c-33 -44 -87 -68 -142 -68c-38 0 -77 11 -109 35c-65 50 -66 103 -66 186l1 334h40l-1 -334c0 -70 1 -112 53 -153c23 -19 53 -30 83 -30
c45 0 86 19 113 53c26 34 30 67 30 105v25l1 334h40l-1 -334c0 -70 1 -112 53 -153c23 -19 53 -30 83 -30c45 0 86 19 113 53c26 34 30 67 30 105v359z" />
    <glyph glyph-name="uni0449.loclBGR" horiz-adv-x="823" 
d="M740 42h73v-122h-42v80h-70v59l-5 -6c-33 -44 -87 -68 -142 -68c-38 0 -77 11 -109 35c-25 19 -40 39 -50 60c-5 -9 -11 -19 -18 -27c-33 -44 -87 -68 -142 -68c-38 0 -77 11 -109 35c-65 50 -66 103 -66 186l1 334h40l-1 -334c0 -70 1 -112 53 -153
c23 -19 53 -30 83 -30c45 0 86 19 113 53c26 34 30 67 30 105v25l1 334h40l-1 -334c0 -70 1 -112 53 -153c23 -19 53 -30 83 -30c45 0 86 19 113 53c26 34 30 67 30 105v359h42v-498z" />
    <glyph glyph-name="uni044C.loclBGR" horiz-adv-x="512" 
d="M70 540h43v-219h146c32 0 56 -1 79 -5c72 -12 134 -53 134 -155c0 -91 -55 -141 -117 -154c-28 -6 -55 -7 -86 -7h-198zM113 279v-237h144c27 0 66 0 91 7c39 11 79 37 79 112c0 72 -33 101 -88 112c-25 5 -55 6 -82 6h-144z" />
    <glyph glyph-name="uni044E.loclBGR" horiz-adv-x="751" 
d="M653 469c45 -58 58 -131 58 -198c0 -69 -13 -141 -58 -199c-45 -60 -112 -87 -189 -87c-153 0 -239 108 -246 264h-106v-249h-42v720h42v-429h105c7 159 96 264 247 264c75 0 145 -28 189 -86zM619 98c36 47 47 110 47 173c0 61 -11 125 -47 172c-35 47 -94 70 -155 70
c-137 0 -202 -100 -202 -242c0 -147 69 -244 202 -244c61 0 120 24 155 71z" />
    <glyph glyph-name="uni0431.loclSRB" 
d="M286 519c67 2 139 -22 185 -76c47 -54 61 -125 62 -191c-1 -65 -15 -136 -62 -190c-46 -54 -118 -78 -185 -77c-66 -1 -139 23 -185 77c-44 51 -61 121 -61 190c0 121 2 165 10 216c12 81 42 146 106 194c66 50 150 58 227 58c38 0 74 -4 111 -9v-40
c-38 6 -75 10 -111 10c-72 0 -146 -12 -202 -52c-57 -40 -81 -112 -92 -202c50 63 113 95 197 92zM286 477c-58 1 -116 -20 -152 -63c-36 -42 -49 -100 -49 -159c0 -63 14 -124 49 -164c36 -44 94 -64 152 -64c59 0 116 20 152 63c37 43 50 103 50 162s-13 120 -50 162
c-36 43 -93 64 -152 63z" />
    <glyph glyph-name="alpha" unicode="&#x3b1;" horiz-adv-x="597" 
d="M533 126c1 -57 15 -92 54 -84v-42c-68 -16 -93 36 -96 94c-41 -69 -110 -109 -204 -109c-160 0 -247 118 -247 286c0 170 90 284 247 284c97 0 167 -43 207 -113v98h39v-238c1 -10 1 -21 1 -31c0 -11 0 -21 -1 -31v-114zM287 27c136 0 202 99 202 244
c0 147 -67 242 -202 242c-137 0 -202 -100 -202 -242c0 -147 69 -244 202 -244z" />
    <glyph glyph-name="beta" unicode="&#x3b2;" horiz-adv-x="545" 
d="M345 392c60 -3 170 -65 170 -191c0 -129 -78 -216 -224 -216c-80 0 -142 28 -179 74v-299h-42v780c1 34 6 65 15 88c28 69 85 107 175 107c114 0 189 -64 189 -186c0 -77 -37 -140 -104 -157zM291 28c106 0 179 64 179 173c0 97 -84 160 -210 163v42c73 9 144 51 144 144
c0 90 -54 143 -143 143c-62 0 -117 -28 -135 -87c-8 -26 -10 -56 -10 -85v-317c0 -29 3 -54 8 -72c19 -62 89 -104 167 -104z" />
    <glyph glyph-name="uni03BC" unicode="&#x3bc;" horiz-adv-x="577" 
d="M513 126c1 -60 15 -96 54 -84v-42c-71 -17 -90 38 -93 82c-14 -22 -33 -42 -57 -59c-42 -28 -92 -38 -139 -34c-48 2 -97 19 -133 53c-14 14 -26 29 -36 46v-268h-39v720h42v-295c0 -24 2 -47 7 -69c7 -40 25 -78 54 -104c28 -27 67 -41 107 -43c41 -2 81 7 114 28
c68 46 77 123 77 220v263h42v-263v-31v-120z" />
    <glyph glyph-name="zero" unicode="0" horiz-adv-x="578" 
d="M289 -15c63 0 120 28 160 70c37 39 59 91 59 149v313c0 59 -24 113 -62 152c-40 41 -96 66 -157 66s-115 -25 -156 -66c-39 -39 -63 -93 -63 -152v-313c0 -57 22 -109 58 -148c40 -44 98 -71 161 -71zM289 693c60 0 112 -30 145 -76c20 -28 32 -63 32 -100v-313
c0 -36 -11 -70 -30 -98c-32 -48 -86 -79 -147 -79s-115 31 -147 79c-19 28 -30 62 -30 98v313c0 38 12 73 32 101c32 45 86 75 145 75z" />
    <glyph glyph-name="one" unicode="1" horiz-adv-x="358" 
d="M196 720h42v-720h-42v671l-136 -81v49z" />
    <glyph glyph-name="two" unicode="2" horiz-adv-x="553" 
d="M57 512c0 69 32 131 81 172c39 32 88 51 142 51s103 -19 142 -51c49 -41 81 -103 81 -172c0 -82 -25 -138 -87 -194l-303 -276h390v-42h-453l1 42l337 307c61 55 73 103 73 163c0 57 -26 108 -67 141c-31 25 -71 40 -114 40s-82 -15 -113 -39c-41 -34 -68 -85 -68 -142
h-42z" />
    <glyph glyph-name="three" unicode="3" horiz-adv-x="534" 
d="M398 398c54 -43 76 -114 76 -182c0 -78 -27 -149 -87 -191c-39 -28 -87 -40 -132 -40c-46 0 -93 10 -133 37s-68 68 -82 111l39 14c13 -37 35 -69 66 -90c32 -21 70 -31 109 -30s78 11 108 33c50 37 67 95 67 156c0 57 -17 112 -59 148c-32 27 -75 40 -118 40
c-29 0 -65 -9 -93 -22l-25 34l273 262h-338v42h399v-43l-244 -233c65 8 127 -7 174 -46z" />
    <glyph glyph-name="four" unicode="4" horiz-adv-x="577" 
d="M441 195h86v-42h-86v-153h-42v153h-349v42l248 525h46l-248 -525h303v225h42v-225z" />
    <glyph glyph-name="five" unicode="5" horiz-adv-x="572" 
d="M90 720h380v-42h-340l-17 -282c43 43 103 70 169 70c61 0 117 -24 160 -62c49 -44 80 -107 80 -178c0 -65 -27 -124 -69 -168c-43 -45 -104 -73 -171 -73c-63 0 -120 23 -162 63c-33 31 -58 72 -70 117l40 11c10 -39 31 -74 61 -99c35 -30 81 -49 131 -49
c54 0 103 21 139 57s59 85 59 141c0 59 -26 113 -68 149c-35 30 -80 49 -130 49c-76 0 -135 -39 -171 -99l-43 25z" />
    <glyph glyph-name="six" unicode="6" horiz-adv-x="620" 
d="M517 615l-36 -21c-34 59 -98 99 -171 99c-55 0 -105 -22 -140 -58c-36 -36 -58 -86 -58 -140v-137c44 64 116 107 198 107c66 0 126 -27 170 -70c43 -44 70 -104 70 -170c0 -63 -25 -121 -66 -164c-43 -47 -105 -76 -174 -76c-71 0 -135 31 -179 80
c-38 43 -61 99 -61 160v270c0 68 28 130 74 173c43 42 101 67 166 67c88 0 166 -48 207 -120zM310 27c58 0 110 25 146 65c32 35 52 82 52 133c0 56 -23 106 -60 142c-36 35 -84 56 -138 56c-57 0 -108 -24 -144 -62c-34 -35 -54 -83 -54 -136c0 -51 20 -98 52 -134
c36 -39 88 -64 146 -64z" />
    <glyph glyph-name="seven" unicode="7" horiz-adv-x="481" 
d="M110 0l276 677h-346v43h391v-43l-276 -677h-45z" />
    <glyph glyph-name="eight" unicode="8" horiz-adv-x="559" 
d="M76 548c0 55 19 105 60 140s94 47 143 47s102 -12 143 -47c43 -34 60 -88 60 -140c0 -54 -20 -105 -60 -139c-12 -10 -25 -18 -39 -24c19 -9 37 -20 53 -34c45 -40 63 -101 63 -156s-18 -115 -63 -155c-43 -40 -102 -55 -157 -55c-54 0 -113 15 -157 55s-61 100 -62 155
s18 116 62 156c16 14 34 25 53 34c-14 6 -27 14 -39 24c-40 34 -60 85 -60 139zM279 690c-42 0 -84 -10 -114 -36c-30 -25 -43 -64 -44 -106c-1 -41 13 -81 43 -106c30 -26 73 -37 115 -37s85 11 115 37c30 25 43 65 43 106c0 42 -14 81 -44 106c-29 26 -72 36 -114 36z
M279 363c-47 0 -95 -13 -128 -44s-47 -77 -47 -124s14 -93 47 -123c33 -31 81 -45 128 -45c48 0 95 14 128 45c33 30 47 76 47 123s-14 93 -47 124s-80 44 -128 44z" />
    <glyph glyph-name="nine" unicode="9" horiz-adv-x="620" 
d="M103 105l36 21c34 -59 98 -99 171 -99c55 0 105 22 140 58c36 36 58 86 58 140v137c-44 -64 -116 -107 -198 -107c-66 0 -126 27 -170 70c-43 44 -70 104 -70 170c0 63 25 121 66 164c43 47 105 76 174 76c71 0 135 -31 179 -80c38 -43 61 -99 61 -160v-270
c0 -68 -28 -130 -74 -173c-43 -42 -101 -67 -166 -67c-88 0 -166 48 -207 120zM310 693c-58 0 -110 -25 -146 -65c-32 -35 -52 -82 -52 -133c0 -56 23 -106 60 -142c36 -35 84 -56 138 -56c57 0 108 24 144 62c34 35 54 83 54 136c0 51 -20 98 -52 134
c-36 39 -88 64 -146 64z" />
    <glyph glyph-name="zero.tf" horiz-adv-x="620" 
d="M310 -15c63 0 121 27 161 71c36 39 58 91 58 148v313c0 59 -24 113 -63 152c-41 41 -95 66 -156 66s-117 -25 -157 -66c-38 -39 -62 -93 -62 -152v-313c0 -58 22 -110 59 -149c40 -42 97 -70 160 -70zM310 693c59 0 113 -30 145 -75c20 -28 32 -63 32 -101v-313
c0 -36 -11 -70 -30 -98c-32 -48 -86 -79 -147 -79s-115 31 -147 79c-19 28 -30 62 -30 98v313c0 37 12 72 32 100c33 46 85 76 145 76z" />
    <glyph glyph-name="one.tf" horiz-adv-x="620" 
d="M318 720h42v-720h-42v671l-136 -81v49z" />
    <glyph glyph-name="two.tf" horiz-adv-x="620" 
d="M90 512c0 69 32 131 81 172c39 32 88 51 142 51s103 -19 142 -51c49 -41 81 -103 81 -172c0 -82 -25 -138 -87 -194l-303 -276h390v-42h-453l1 42l337 307c61 55 73 103 73 163c0 57 -26 108 -67 141c-31 25 -71 40 -114 40s-82 -15 -113 -39c-41 -34 -68 -85 -68 -142
h-42z" />
    <glyph glyph-name="three.tf" horiz-adv-x="620" 
d="M441 398c54 -43 76 -114 76 -182c0 -78 -27 -149 -87 -191c-39 -28 -87 -40 -132 -40c-46 0 -93 10 -133 37s-68 68 -82 111l39 14c13 -37 35 -69 66 -90c32 -21 70 -31 109 -30s78 11 108 33c50 37 67 95 67 156c0 57 -17 112 -59 148c-32 27 -75 40 -118 40
c-29 0 -65 -9 -93 -22l-25 34l273 262h-338v42h399v-43l-244 -233c65 8 127 -7 174 -46z" />
    <glyph glyph-name="four.tf" horiz-adv-x="620" 
d="M471 195h86v-42h-86v-153h-42v153h-349v42l248 525h46l-248 -525h303v225h42v-225z" />
    <glyph glyph-name="five.tf" horiz-adv-x="620" 
d="M114 720h380v-42h-340l-17 -282c43 43 103 70 169 70c61 0 117 -24 160 -62c49 -44 80 -107 80 -178c0 -65 -27 -124 -69 -168c-43 -45 -104 -73 -171 -73c-63 0 -120 23 -162 63c-33 31 -58 72 -70 117l40 11c10 -39 31 -74 61 -99c35 -30 81 -49 131 -49
c54 0 103 21 139 57s59 85 59 141c0 59 -26 113 -68 149c-35 30 -80 49 -130 49c-76 0 -135 -39 -171 -99l-43 25z" />
    <glyph glyph-name="six.tf" horiz-adv-x="620" 
d="M517 615l-36 -21c-34 59 -98 99 -171 99c-55 0 -105 -22 -140 -58c-36 -36 -58 -86 -58 -140v-137c44 64 116 107 198 107c66 0 126 -27 170 -70c43 -44 70 -104 70 -170c0 -63 -25 -121 -66 -164c-43 -47 -105 -76 -174 -76c-71 0 -135 31 -179 80
c-38 43 -61 99 -61 160v270c0 68 28 130 74 173c43 42 101 67 166 67c88 0 166 -48 207 -120zM310 27c58 0 110 25 146 65c32 35 52 82 52 133c0 56 -23 106 -60 142c-36 35 -84 56 -138 56c-57 0 -108 -24 -144 -62c-34 -35 -54 -83 -54 -136c0 -51 20 -98 52 -134
c36 -39 88 -64 146 -64z" />
    <glyph glyph-name="seven.tf" horiz-adv-x="620" 
d="M189 0l276 677h-346v43h391v-43l-276 -677h-45z" />
    <glyph glyph-name="eight.tf" horiz-adv-x="620" 
d="M107 548c0 55 19 105 60 140s94 47 143 47s102 -12 143 -47c43 -34 60 -88 60 -140c0 -54 -20 -105 -60 -139c-12 -10 -25 -18 -39 -24c19 -9 37 -20 53 -34c45 -40 63 -101 63 -156s-18 -115 -63 -155c-43 -40 -102 -55 -157 -55c-54 0 -113 15 -157 55s-61 100 -62 155
s18 116 62 156c16 14 34 25 53 34c-14 6 -27 14 -39 24c-40 34 -60 85 -60 139zM310 690c-42 0 -84 -10 -114 -36c-30 -25 -43 -64 -44 -106c-1 -41 13 -81 43 -106c30 -26 73 -37 115 -37s85 11 115 37c30 25 43 65 43 106c0 42 -14 81 -44 106c-29 26 -72 36 -114 36z
M310 363c-47 0 -95 -13 -128 -44s-47 -77 -47 -124s14 -93 47 -123c33 -31 81 -45 128 -45c48 0 95 14 128 45c33 30 47 76 47 123s-14 93 -47 124s-80 44 -128 44z" />
    <glyph glyph-name="nine.tf" horiz-adv-x="620" 
d="M103 105l36 21c34 -59 98 -99 171 -99c55 0 105 22 140 58c36 36 58 86 58 140v137c-44 -64 -116 -107 -198 -107c-66 0 -126 27 -170 70c-43 44 -70 104 -70 170c0 63 25 121 66 164c43 47 105 76 174 76c71 0 135 -31 179 -80c38 -43 61 -99 61 -160v-270
c0 -68 -28 -130 -74 -173c-43 -42 -101 -67 -166 -67c-88 0 -166 48 -207 120zM310 693c-58 0 -110 -25 -146 -65c-32 -35 -52 -82 -52 -133c0 -56 23 -106 60 -142c36 -35 84 -56 138 -56c57 0 108 24 144 62c34 35 54 83 54 136c0 51 -20 98 -52 134
c-36 39 -88 64 -146 64z" />
    <glyph glyph-name="fraction" unicode="&#x2044;" horiz-adv-x="722" 
d="M30 0l-30 30l692 690l30 -29z" />
    <glyph glyph-name="period" unicode="." horiz-adv-x="220" 
d="M80 60h60v-60h-60v60z" />
    <glyph glyph-name="comma" unicode="," horiz-adv-x="240" 
d="M120 -30c0 -41 -22 -66 -60 -59l3 26c35 -2 30 31 30 63h-33v90h60v-120z" />
    <glyph glyph-name="colon" unicode=":" horiz-adv-x="270" 
d="M110 450h60v-60h-60v60zM110 150h60v-60h-60v60z" />
    <glyph glyph-name="semicolon" unicode=";" horiz-adv-x="280" 
d="M110 540h60v-60h-60v60zM170 -30c0 -41 -22 -66 -60 -59l3 26c35 -2 30 31 30 63h-33v90h60v-120z" />
    <glyph glyph-name="ellipsis" unicode="&#x2026;" horiz-adv-x="580" 
d="M80 60h60v-60h-60v60zM260 60h60v-60h-60v60zM440 60h60v-60h-60v60z" />
    <glyph glyph-name="exclam" unicode="!" horiz-adv-x="282" 
d="M120 720v-540h42v540h-42zM120 64h42v-64h-42v64z" />
    <glyph glyph-name="exclamdown" unicode="&#xa1;" horiz-adv-x="282" 
d="M120 476v64h42v-64h-42zM120 -180h42v540h-42v-540z" />
    <glyph glyph-name="question" unicode="?" horiz-adv-x="504" 
d="M454 548c0 -46 -15 -92 -46 -123c-36 -39 -107 -70 -132 -118c-17 -32 -13 -63 -13 -110h-45c0 56 -2 88 20 130c32 60 101 86 139 127c25 29 32 61 32 95c0 41 -11 73 -32 96c-32 37 -80 48 -127 48c-51 0 -96 -15 -123 -45c-25 -25 -35 -61 -35 -98h-42
c0 44 13 93 46 127c40 41 99 58 156 58c60 0 117 -17 155 -58c33 -35 47 -78 47 -129zM218 0v75h45v-75h-45z" />
    <glyph glyph-name="questiondown" unicode="&#xbf;" horiz-adv-x="504" 
d="M286 540v-75h-45v75h45zM50 -8c0 46 15 92 46 123c36 39 107 70 132 118c17 32 13 63 13 110h45c0 -56 2 -88 -20 -130c-32 -60 -101 -86 -139 -127c-25 -29 -32 -61 -32 -95c0 -41 11 -73 32 -96c32 -37 80 -48 127 -48c51 0 96 15 123 45c25 25 35 61 35 98h42
c0 -44 -13 -93 -46 -127c-40 -41 -99 -58 -156 -58c-60 0 -117 17 -155 58c-33 35 -47 78 -47 129z" />
    <glyph glyph-name="periodcentered" unicode="&#xb7;" horiz-adv-x="560" 
d="M281 275c-23 0 -41 17 -41 40s18 40 41 40c21 0 39 -17 39 -40s-18 -40 -39 -40z" />
    <glyph glyph-name="bullet" unicode="&#x2022;" horiz-adv-x="620" 
d="M312 215c-57 0 -102 43 -102 100s45 100 102 100c53 0 98 -43 98 -100s-45 -100 -98 -100z" />
    <glyph glyph-name="asterisk" unicode="*" horiz-adv-x="418" 
d="M358 585l-130 -42l80 -111l-34 -25l-80 111l-81 -111l-34 25l81 111l-130 42l13 40l130 -42v137h42v-137l130 42z" />
    <glyph glyph-name="numbersign" unicode="#" horiz-adv-x="913" 
d="M842 462h-218l-51 -189h218l-11 -42h-218l-62 -231h-43l61 231h-196l-62 -231h-43l61 231h-218l11 42h219l50 189h-218l11 42h219l57 216h44l-58 -216h197l57 216h44l-58 -216h218zM530 273l50 189h-196l-51 -189h197z" />
    <glyph glyph-name="slash" unicode="/" horiz-adv-x="357" 
d="M252 720h45l-192 -720h-45z" />
    <glyph glyph-name="backslash" unicode="\" horiz-adv-x="357" 
d="M105 720l192 -720h-45l-192 720h45z" />
    <glyph glyph-name="colon.case" horiz-adv-x="270" 
d="M110 570h60v-60h-60v60zM110 210h60v-60h-60v60z" />
    <glyph glyph-name="exclamdown.case" horiz-adv-x="282" 
d="M120 656v64h42v-64h-42zM120 0h42v540h-42v-540z" />
    <glyph glyph-name="questiondown.case" horiz-adv-x="504" 
d="M286 720v-75h-45v75h45zM50 172c0 46 15 92 46 123c36 39 107 70 132 118c17 32 13 63 13 110h45c0 -56 2 -88 -20 -130c-32 -60 -101 -86 -139 -127c-25 -29 -32 -61 -32 -95c0 -41 11 -73 32 -96c32 -37 80 -48 127 -48c51 0 96 15 123 45c25 25 35 61 35 98h42
c0 -44 -13 -93 -46 -127c-40 -41 -99 -58 -156 -58c-60 0 -117 17 -155 58c-33 35 -47 78 -47 129z" />
    <glyph glyph-name="periodcentered.case" horiz-adv-x="560" 
d="M281 320c-23 0 -41 17 -41 40s18 40 41 40c21 0 39 -17 39 -40s-18 -40 -39 -40z" />
    <glyph glyph-name="parenleft" unicode="(" horiz-adv-x="408" 
d="M363 806l-31 26c-118 -134 -192 -318 -192 -502s74 -368 192 -502l31 27c-112 128 -183 307 -183 475c0 171 69 342 183 476z" />
    <glyph glyph-name="parenright" unicode=")" horiz-adv-x="408" 
d="M45 806c114 -134 183 -305 183 -476c0 -168 -71 -347 -183 -475l31 -27c118 134 192 318 192 502s-74 368 -192 502z" />
    <glyph glyph-name="braceleft" unicode="{" horiz-adv-x="400" 
d="M355 -222v42h-54c-35 0 -63 28 -63 62v343c0 21 -6 42 -19 60l-32 45l32 45c13 18 19 38 19 60v342c0 35 28 63 63 63h54v42h-54c-58 0 -105 -47 -105 -105v-342c0 -13 -4 -25 -11 -36l-41 -57c-5 -7 -5 -17 0 -24l41 -57c7 -11 11 -23 11 -36v-343
c0 -57 47 -104 105 -104h54z" />
    <glyph glyph-name="braceright" unicode="}" horiz-adv-x="400" 
d="M45 -222h54c58 0 105 47 105 104v343c0 13 4 25 11 36l41 57c5 7 5 17 0 24l-41 57c-7 11 -11 23 -11 36v342c0 58 -47 105 -105 105h-54v-42h54c35 0 63 -28 63 -63v-342c0 -22 6 -42 19 -60l32 -45l-32 -45c-13 -18 -19 -39 -19 -60v-343c0 -34 -28 -62 -63 -62h-54
v-42z" />
    <glyph glyph-name="bracketleft" unicode="[" horiz-adv-x="396" 
d="M306 840h-124v-1020h124v-42h-166v1104h166v-42z" />
    <glyph glyph-name="bracketright" unicode="]" horiz-adv-x="396" 
d="M256 882v-1104h-166v42h124v1020h-124v42h166z" />
    <glyph glyph-name="parenleft.case" horiz-adv-x="408" 
d="M363 836l-31 26c-118 -134 -192 -318 -192 -502s74 -368 192 -502l31 27c-112 128 -183 307 -183 475c0 171 69 342 183 476z" />
    <glyph glyph-name="parenright.case" horiz-adv-x="408" 
d="M45 836c114 -134 183 -305 183 -476c0 -168 -71 -347 -183 -475l31 -27c118 134 192 318 192 502s-74 368 -192 502z" />
    <glyph glyph-name="braceleft.case" horiz-adv-x="400" 
d="M355 -192v42h-54c-35 0 -63 28 -63 62v343c0 21 -6 42 -19 60l-32 45l32 45c13 18 19 38 19 60v342c0 35 28 63 63 63h54v42h-54c-58 0 -105 -47 -105 -105v-342c0 -13 -4 -25 -11 -36l-41 -57c-5 -7 -5 -17 0 -24l41 -57c7 -11 11 -23 11 -36v-343
c0 -57 47 -104 105 -104h54z" />
    <glyph glyph-name="braceright.case" horiz-adv-x="400" 
d="M45 -192h54c58 0 105 47 105 104v343c0 13 4 25 11 36l41 57c5 7 5 17 0 24l-41 57c-7 11 -11 23 -11 36v342c0 58 -47 105 -105 105h-54v-42h54c35 0 63 -28 63 -63v-342c0 -22 6 -42 19 -60l32 -45l-32 -45c-13 -18 -19 -39 -19 -60v-343c0 -34 -28 -62 -63 -62h-54
v-42z" />
    <glyph glyph-name="bracketleft.case" horiz-adv-x="396" 
d="M306 870h-124v-1020h124v-42h-166v1104h166v-42z" />
    <glyph glyph-name="bracketright.case" horiz-adv-x="396" 
d="M256 912v-1104h-166v42h124v1020h-124v42h166z" />
    <glyph glyph-name="hyphen" unicode="-" horiz-adv-x="420" 
d="M60 336h300v-42h-300v42z" />
    <glyph glyph-name="endash" unicode="&#x2013;" horiz-adv-x="540" 
d="M60 336h420v-42h-420v42z" />
    <glyph glyph-name="emdash" unicode="&#x2014;" horiz-adv-x="780" 
d="M60 336h660v-42h-660v42z" />
    <glyph glyph-name="uni2011" unicode="&#x2011;" horiz-adv-x="420" 
d="M60 336h300v-42h-300v42z" />
    <glyph glyph-name="underscore" unicode="_" horiz-adv-x="660" 
d="M0 -54h660v-42h-660v42z" />
    <glyph glyph-name="hyphen.case" horiz-adv-x="420" 
d="M60 381h300v-42h-300v42z" />
    <glyph glyph-name="endash.case" horiz-adv-x="540" 
d="M60 381h420v-42h-420v42z" />
    <glyph glyph-name="emdash.case" horiz-adv-x="780" 
d="M60 381h660v-42h-660v42z" />
    <glyph glyph-name="quotesinglbase" unicode="&#x201a;" horiz-adv-x="240" 
d="M120 -30c0 -41 -22 -66 -60 -59l3 26c35 -2 30 31 30 63h-33v90h60v-120z" />
    <glyph glyph-name="quotedblbase" unicode="&#x201e;" horiz-adv-x="360" 
d="M140 50c0 -41 -22 -66 -60 -59l3 26c35 -2 30 31 30 63h-33v90h60v-120zM240 50c0 -41 -22 -66 -60 -59l3 26c35 -2 30 31 30 63h-33v90h60v-120z" />
    <glyph glyph-name="quotedblleft" unicode="&#x201c;" horiz-adv-x="363" 
d="M123 610v120h60v-90h-33c0 -32 -5 -65 30 -63l3 -26c-38 -7 -60 18 -60 59zM223 610v120h60v-90h-33c0 -32 -5 -65 30 -63l3 -26c-38 -7 -60 18 -60 59z" />
    <glyph glyph-name="quotedblright" unicode="&#x201d;" horiz-adv-x="363" 
d="M140 610c0 -41 -22 -66 -60 -59l3 26c35 -2 30 31 30 63h-33v90h60v-120zM240 610c0 -41 -22 -66 -60 -59l3 26c35 -2 30 31 30 63h-33v90h60v-120z" />
    <glyph glyph-name="quoteleft" unicode="&#x2018;" horiz-adv-x="180" 
d="M60 600v120h60v-90h-33c0 -32 -5 -65 30 -63l3 -26c-38 -7 -60 18 -60 59z" />
    <glyph glyph-name="quoteright" unicode="&#x2019;" horiz-adv-x="180" 
d="M120 600c0 -41 -22 -66 -60 -59l3 26c35 -2 30 31 30 63h-33v90h60v-120z" />
    <glyph glyph-name="guillemotleft" unicode="&#xab;" horiz-adv-x="502" 
d="M251 101l31 24l-152 191l152 190l-31 24l-171 -214zM401 101l31 24l-152 191l152 190l-31 24l-171 -214z" />
    <glyph glyph-name="guillemotright" unicode="&#xbb;" horiz-adv-x="502" 
d="M101 101l171 215l-171 214l-31 -24l152 -190l-152 -191zM251 101l171 215l-171 214l-31 -24l152 -190l-152 -191z" />
    <glyph glyph-name="guilsinglleft" unicode="&#x2039;" horiz-adv-x="599" 
d="M371 84l-231 231l231 231l28 -27l-204 -204l204 -204z" />
    <glyph glyph-name="guilsinglright" unicode="&#x203a;" horiz-adv-x="599" 
d="M228 84l-28 27l204 204l-204 204l28 27l231 -231z" />
    <glyph glyph-name="quotedbl" unicode="&#x22;" horiz-adv-x="342" 
d="M60 720h42v-180h-42v180zM200 720h42v-180h-42v180z" />
    <glyph glyph-name="quotesingle" unicode="'" horiz-adv-x="182" 
d="M60 720h42v-180h-42v180z" />
    <glyph glyph-name="guillemotleft.case" horiz-adv-x="502" 
d="M251 146l31 24l-152 191l152 190l-31 24l-171 -214zM401 146l31 24l-152 191l152 190l-31 24l-171 -214z" />
    <glyph glyph-name="guillemotright.case" horiz-adv-x="502" 
d="M101 146l171 215l-171 214l-31 -24l152 -190l-152 -191zM251 146l171 215l-171 214l-31 -24l152 -190l-152 -191z" />
    <glyph glyph-name="guilsinglleft.case" horiz-adv-x="599" 
d="M371 129l-231 231l231 231l28 -27l-204 -204l204 -204z" />
    <glyph glyph-name="guilsinglright.case" horiz-adv-x="599" 
d="M228 129l-28 27l204 204l-204 204l28 27l231 -231z" />
    <glyph glyph-name="space" unicode=" " horiz-adv-x="200" 
 />
    <glyph glyph-name="uni00A0" unicode="&#xa0;" horiz-adv-x="200" 
 />
    <glyph glyph-name=".null" horiz-adv-x="0" 
 />
    <glyph glyph-name="uni2060" unicode="&#x2060;" horiz-adv-x="0" 
 />
    <glyph glyph-name="cent" unicode="&#xa2;" horiz-adv-x="539" 
d="M287 102c79 0 143 37 176 108l41 -18c-42 -80 -108 -125 -195 -131v-91h-42v91c-148 9 -224 122 -227 284c3 166 80 275 227 284v91h42v-91c90 -7 164 -56 195 -133l-40 -17c-30 69 -96 109 -177 109c-136 0 -200 -99 -202 -243c2 -147 69 -243 202 -243z" />
    <glyph glyph-name="dollar" unicode="$" horiz-adv-x="557" 
d="M433 302c39 -32 64 -73 64 -128s-21 -102 -58 -135c-34 -30 -82 -50 -140 -53v-84h-42v84c-55 5 -104 31 -140 70c-35 39 -57 91 -57 148h42c0 -47 18 -90 48 -121c32 -35 77 -56 128 -56c48 0 101 13 137 47c24 23 40 55 40 100c0 38 -18 69 -46 93
c-35 32 -87 55 -138 73c-55 20 -111 46 -149 86c-29 30 -47 69 -47 120c0 55 23 103 60 137c32 29 74 47 122 51v86h42v-86c44 -5 84 -23 115 -51c42 -37 68 -92 68 -152h-42c0 48 -21 91 -53 120c-29 26 -67 42 -109 42c-46 0 -85 -15 -114 -40c-29 -27 -47 -64 -47 -107
c0 -36 11 -66 37 -92c27 -28 70 -52 132 -75c53 -19 107 -43 147 -77z" />
    <glyph glyph-name="Euro" unicode="&#x20ac;" horiz-adv-x="636" 
d="M573 58l23 -36c-46 -25 -101 -37 -158 -37c-100 0 -186 36 -247 113c-37 48 -58 104 -68 161h-83v42h77c-2 20 -2 40 -2 59s1 38 3 57h-78v42h84c10 58 30 114 67 162c58 77 148 114 247 114c56 0 111 -12 157 -37l-23 -37c-41 20 -87 30 -134 31
c-82 1 -164 -32 -212 -97c-30 -39 -48 -86 -57 -136h310v-42h-315c-2 -19 -3 -38 -3 -57c0 -20 1 -39 3 -59h315v-42h-309c9 -49 26 -96 56 -135c48 -65 130 -96 212 -97c47 -1 94 10 135 31z" />
    <glyph glyph-name="florin" unicode="&#x192;" horiz-adv-x="784" 
d="M596 735c73 0 130 -27 128 -30l-21 -36s-45 24 -107 24c-41 0 -140 -13 -161 -139l-28 -173h246v-42h-253l-26 -158c-29 -177 -142 -196 -189 -196c-66 0 -123 28 -125 29l18 38c1 0 51 -25 107 -25c45 0 125 21 147 161l25 151h-197v42h204l29 180
c28 162 163 174 203 174z" />
    <glyph glyph-name="uni20B4" unicode="&#x20b4;" horiz-adv-x="619" 
d="M485 449h74v-42h-499v42h369l5 5c26 26 37 56 37 92c0 43 -18 80 -47 107c-29 25 -68 40 -114 40c-42 0 -80 -16 -109 -42s-48 -63 -52 -105h-42c3 54 29 103 67 137c36 32 84 52 136 52c57 0 107 -19 143 -52c37 -34 60 -82 60 -137c0 -39 -10 -71 -28 -97zM559 311v-42
h-378c0 -1 -1 -1 -2 -2c-28 -24 -46 -55 -46 -93c0 -45 16 -77 40 -100c36 -34 89 -47 137 -47c51 0 96 21 128 56c23 24 40 56 46 91h42c-6 -45 -26 -86 -55 -118c-40 -44 -98 -71 -161 -71c-67 0 -123 20 -161 54c-37 33 -58 80 -58 135c0 38 12 69 32 95h-63v42h499z" />
    <glyph glyph-name="uni20BD" unicode="&#x20bd;" horiz-adv-x="661" 
d="M461 716c104 -16 170 -104 170 -212s-66 -196 -170 -212c-18 -3 -32 -4 -46 -4h-223v-108h238v-42h-238v-138h-42v138h-80v42h80v108h-80v42h80v390h265c14 0 28 -1 46 -4zM459 334c83 16 127 89 127 170s-44 154 -127 170c-16 3 -33 4 -44 4h-223v-348h223
c11 0 28 1 44 4z" />
    <glyph glyph-name="sterling" unicode="&#xa3;" horiz-adv-x="631" 
d="M247 347v-305h311v-42h-498v42h76c38 0 69 31 69 69v236h-145v42h145v161c0 110 76 185 179 185c87 0 148 -57 187 -174l-40 -13c-33 100 -79 145 -148 145c-82 0 -136 -56 -136 -143v-161h202v-42h-202z" />
    <glyph glyph-name="yen" unicode="&#xa5;" horiz-adv-x="519" 
d="M519 720l-214 -372h135v-42h-159v-132h159v-42h-159v-132h-42v132h-159v42h159v132h-159v42h135l-215 372h48l212 -366l211 366h48z" />
    <glyph glyph-name="plus" unicode="+" horiz-adv-x="580" 
d="M520 381v-42h-209v-209h-42v209h-209v42h209v209h42v-209h209z" />
    <glyph glyph-name="minus" unicode="&#x2212;" horiz-adv-x="540" 
d="M60 381h420v-42h-420v42z" />
    <glyph glyph-name="multiply" unicode="&#xd7;" horiz-adv-x="475" 
d="M415 507l-147 -147l147 -148l-30 -30l-147 148l-148 -148l-30 30l148 148l-148 147l30 30l148 -147l147 147z" />
    <glyph glyph-name="equal" unicode="=" horiz-adv-x="750" 
d="M120 460v-42h510v42h-510zM120 302v-42h510v42h-510z" />
    <glyph glyph-name="notequal" unicode="&#x2260;" horiz-adv-x="750" 
d="M630 418h-167l-116 -116h283v-42h-325l-80 -80l-30 30l50 50h-125v42h167l117 116h-284v42h326l80 80l30 -29l-51 -51h125v-42z" />
    <glyph glyph-name="greater" unicode="&#x3e;" horiz-adv-x="599" 
d="M228 84l-28 27l204 204l-204 204l28 27l231 -231z" />
    <glyph glyph-name="less" unicode="&#x3c;" horiz-adv-x="599" 
d="M371 84l-231 231l231 231l28 -27l-204 -204l204 -204z" />
    <glyph glyph-name="greaterequal" unicode="&#x2265;" horiz-adv-x="750" 
d="M120 167v46l437 148l-437 148v46l510 -174v-40zM630 42h-510v-42h510v42z" />
    <glyph glyph-name="lessequal" unicode="&#x2264;" horiz-adv-x="750" 
d="M630 167l-510 174v40l510 174v-46l-437 -148l437 -148v-46zM120 42v-42h510v42h-510z" />
    <glyph glyph-name="plusminus" unicode="&#xb1;" horiz-adv-x="600" 
d="M321 401h219v-42h-219v-139h-42v139h-219v42h219v139h42v-139zM60 88v42h480v-42h-480z" />
    <glyph glyph-name="asciitilde" unicode="~" horiz-adv-x="626" 
d="M503 372c5 -21 5 -47 -7 -71c-16 -27 -46 -39 -70 -41c-43 -4 -80 10 -114 24c-50 21 -77 34 -107 31c-35 -3 -39 -36 -31 -56h-51c-5 21 -5 46 7 70c16 27 46 40 70 41c43 5 80 -10 114 -24c50 -21 77 -34 107 -31c35 3 39 37 31 57h51z" />
    <glyph glyph-name="asciicircum" unicode="^" horiz-adv-x="662" 
d="M105 505l231 231l231 -231l-27 -28l-204 204l-204 -204z" />
    <glyph glyph-name="percent" unicode="%" horiz-adv-x="902" 
d="M240 375c-99 0 -180 80 -180 180c0 98 84 180 180 180c99 0 180 -80 180 -180s-81 -180 -180 -180zM120 0l-30 30l692 690l30 -29zM240 417c75 0 138 63 138 138s-63 138 -138 138s-138 -63 -138 -138s63 -138 138 -138zM662 -15c-99 0 -180 80 -180 180
c0 98 84 180 180 180c99 0 180 -80 180 -180s-81 -180 -180 -180zM662 27c75 0 138 63 138 138s-63 138 -138 138s-138 -63 -138 -138s63 -138 138 -138z" />
    <glyph glyph-name="greater.case" horiz-adv-x="599" 
d="M228 129l-28 27l204 204l-204 204l28 27l231 -231z" />
    <glyph glyph-name="less.case" horiz-adv-x="599" 
d="M371 129l-231 231l231 231l28 -27l-204 -204l204 -204z" />
    <glyph glyph-name="arrowup" unicode="&#x2191;" horiz-adv-x="702" 
d="M582 483l-27 -28l-183 183v-638h-42v638l-183 -183l-27 28l231 231z" />
    <glyph glyph-name="arrowdown" unicode="&#x2193;" horiz-adv-x="702" 
d="M555 195l27 -28l-231 -231l-231 231l27 28l183 -183v638h42v-638z" />
    <glyph glyph-name="carriagereturn" unicode="&#x21b5;" horiz-adv-x="794" 
d="M692 720h42v-426h-518l183 -183l-28 -27l-231 231l231 231l28 -27l-183 -183h476v384z" />
    <glyph glyph-name="arrowright.case" horiz-adv-x="994" 
d="M623 591l231 -231l-231 -231l-28 27l183 183h-638v42h638l-183 183z" />
    <glyph glyph-name="arrowleft.case" horiz-adv-x="994" 
d="M854 381v-42h-638l183 -183l-28 -27l-231 231l231 231l28 -27l-183 -183h638z" />
    <glyph glyph-name="at" unicode="@" horiz-adv-x="911" 
d="M831 269c0 -64 -12 -118 -48 -156c-24 -26 -62 -38 -94 -38c-43 0 -82 21 -106 48c-17 19 -23 31 -27 48c-25 -25 -65 -38 -101 -38c-34 0 -72 10 -99 37c-28 28 -36 65 -37 99s10 72 37 99s65 38 99 38c33 0 72 -10 99 -37v23h39v-150c0 -39 -1 -67 24 -92
c21 -21 43 -33 72 -33c24 0 48 9 63 26c27 30 35 80 34 126c-2 80 -20 152 -63 212c-60 83 -166 119 -270 119c-87 0 -172 -28 -233 -82c-69 -61 -95 -154 -95 -247c0 -105 30 -197 104 -260c63 -54 147 -74 230 -74c70 0 138 17 195 54l23 -37c-65 -42 -143 -59 -218 -59
c-97 0 -188 25 -258 83c-84 69 -119 176 -121 293c-2 104 32 206 106 277c70 68 170 97 267 97c122 0 237 -46 306 -137c53 -70 72 -150 72 -239zM548 270c0 27 -7 52 -24 69s-42 26 -69 26s-53 -8 -70 -25s-24 -43 -24 -70s7 -52 24 -69s43 -25 70 -25s51 9 69 26
c17 16 24 41 24 68z" />
    <glyph glyph-name="ampersand" unicode="&#x26;" horiz-adv-x="640" 
d="M545 330v-97c0 -64 -6 -93 -13 -114l95 -88l-29 -31l-86 81c-15 -27 -47 -53 -75 -68c-41 -22 -91 -28 -140 -28c-81 0 -149 22 -194 70c-34 36 -51 84 -53 135c-1 47 13 99 45 137c23 29 55 47 87 59c-57 57 -88 95 -88 165c0 68 34 130 93 160c34 17 71 24 107 24
c48 0 99 -12 134 -37c24 -16 44 -40 56 -66l-39 -18c-9 21 -23 37 -42 50c-29 20 -67 29 -105 29c-32 0 -64 -7 -91 -20c-45 -23 -68 -66 -68 -120c0 -46 13 -71 44 -108c16 -18 35 -34 54 -51l259 -241c4 22 5 40 5 60l-1 117h45zM481 113l-263 240
c-35 -10 -67 -28 -89 -54c-24 -29 -35 -68 -34 -108s13 -78 39 -105c36 -41 99 -59 161 -59c49 0 87 4 122 25c42 26 55 47 64 61z" />
    <glyph glyph-name="copyright" unicode="&#xa9;" horiz-adv-x="768" 
d="M384 -75c190 0 344 154 344 344s-154 344 -344 344s-344 -154 -344 -344s154 -344 344 -344zM384 -31c-167 0 -301 134 -301 301c0 165 134 299 301 299c165 0 299 -134 299 -299c0 -167 -134 -301 -299 -301zM550 375l-41 -14c-10 22 -28 44 -49 58s-47 20 -73 20
c-43 0 -81 -18 -106 -50s-33 -76 -33 -119s10 -86 33 -119s63 -50 106 -50c26 0 52 7 74 20c21 13 36 33 47 57l42 -15c-14 -30 -35 -58 -62 -75c-30 -19 -63 -28 -101 -28c-58 0 -109 21 -142 64s-44 96 -43 146c1 51 9 104 43 146c35 44 84 64 142 64c37 0 68 -7 98 -25
c29 -18 54 -46 65 -80z" />
    <glyph glyph-name="registered" unicode="&#xae;" horiz-adv-x="605" 
d="M303 762c128 0 232 -104 232 -232c0 -129 -104 -233 -232 -233c-129 0 -233 104 -233 233c0 128 104 232 233 232zM303 720c-106 0 -191 -85 -191 -190c0 -106 85 -191 191 -191c105 0 190 85 190 191c0 105 -85 190 -190 190zM222 647h102c39 0 75 -34 75 -74
c0 -26 -17 -55 -44 -67l44 -89h-41l-40 82h-60v-82h-36v230zM258 613v-80h65c20 0 39 18 39 40c0 24 -22 40 -39 40h-65z" />
    <glyph glyph-name="trademark" unicode="&#x2122;" horiz-adv-x="877" 
d="M60 678v42h311v-42h-134v-333h-42v333h-135zM779 720h37l1 -375h-40v288l-130 -234h-34l-129 234v-288h-40v375h37l149 -268z" />
    <glyph glyph-name="degree" unicode="&#xb0;" horiz-adv-x="450" 
d="M210 375c-99 0 -180 80 -180 180c0 98 84 180 180 180c99 0 180 -80 180 -180s-81 -180 -180 -180zM210 417c75 0 138 63 138 138s-63 138 -138 138s-138 -63 -138 -138s63 -138 138 -138z" />
    <glyph glyph-name="bar" unicode="|" horiz-adv-x="222" 
d="M90 720h42v-720h-42v720z" />
    <glyph glyph-name="uni2116" unicode="&#x2116;" horiz-adv-x="1090" 
d="M860 375c-99 0 -180 80 -180 180c0 98 84 180 180 180c99 0 180 -80 180 -180s-81 -180 -180 -180zM112 720l438 -645v645h42v-720h-42l-438 646v-646h-42v720h42zM860 417c75 0 138 63 138 138s-63 138 -138 138s-138 -63 -138 -138s63 -138 138 -138zM710 336h300v-42
h-300v42z" />
    <glyph glyph-name="at.case" horiz-adv-x="911" 
d="M831 359c0 -64 -12 -118 -48 -156c-24 -26 -62 -38 -94 -38c-43 0 -82 21 -106 48c-17 19 -23 31 -27 48c-25 -25 -65 -38 -101 -38c-34 0 -72 10 -99 37c-28 28 -36 65 -37 99s10 72 37 99s65 38 99 38c33 0 72 -10 99 -37v23h39v-150c0 -39 -1 -67 24 -92
c21 -21 43 -33 72 -33c24 0 48 9 63 26c27 30 35 80 34 126c-2 80 -20 152 -63 212c-60 83 -166 119 -270 119c-87 0 -172 -28 -233 -82c-69 -61 -95 -154 -95 -247c0 -105 30 -197 104 -260c63 -54 147 -74 230 -74c70 0 138 17 195 54l23 -37c-65 -42 -143 -59 -218 -59
c-97 0 -188 25 -258 83c-84 69 -119 176 -121 293c-2 104 32 206 106 277c70 68 170 97 267 97c122 0 237 -46 306 -137c53 -70 72 -150 72 -239zM548 360c0 27 -7 52 -24 69s-42 26 -69 26s-53 -8 -70 -25s-24 -43 -24 -70s7 -52 24 -69s43 -25 70 -25s51 9 69 26
c17 16 24 41 24 68z" />
    <glyph glyph-name="copyright.case" horiz-adv-x="768" 
d="M384 16c190 0 344 154 344 344s-154 344 -344 344s-344 -154 -344 -344s154 -344 344 -344zM384 60c-167 0 -301 134 -301 301c0 165 134 299 301 299c165 0 299 -134 299 -299c0 -167 -134 -301 -299 -301zM550 466l-41 -14c-10 22 -28 44 -49 58s-47 20 -73 20
c-43 0 -81 -18 -106 -50s-33 -76 -33 -119s10 -86 33 -119s63 -50 106 -50c26 0 52 7 74 20c21 13 36 33 47 57l42 -15c-14 -30 -35 -58 -62 -75c-30 -19 -63 -28 -101 -28c-58 0 -109 21 -142 64s-44 96 -43 146c1 51 9 104 43 146c35 44 84 64 142 64c37 0 68 -7 98 -25
c29 -18 54 -46 65 -80z" />
    <glyph glyph-name="nonmarkingreturn" horiz-adv-x="1111" 
 />
    </font>
</defs>
</svg>
